<?xml version="1.0" standalone="no"?>
<!DOCTYPE svg PUBLIC "-//W3C//DTD SVG 1.1//EN" "http://www.w3.org/Graphics/SVG/1.1/DTD/svg11.dtd" >
<svg xmlns="http://www.w3.org/2000/svg" xmlns:xlink="http://www.w3.org/1999/xlink" version="1.1">
<metadata>
Created by FontForge 20170731 at Fri Jul 22 17:20:48 2022
 By Aleksey,,,
Copyright (c) 2009 by atipo. All rights reserved.
</metadata>
<defs>
<font id="Calendas-Bold" horiz-adv-x="1138" >
  <font-face 
    font-family="Calendas Bold"
    font-weight="700"
    font-stretch="normal"
    units-per-em="2048"
    panose-1="2 0 0 0 0 0 0 0 0 0"
    ascent="1536"
    descent="-512"
    x-height="922"
    cap-height="1434"
    bbox="-227 -549 3011 1980"
    underline-thickness="102"
    underline-position="-307"
    unicode-range="U+0020-FB06"
  />
<missing-glyph horiz-adv-x="1024" 
d="M551 254h-113v113h113v-113zM543 469h-97v80q0 63 22.5 115t54.5 87t64 67.5t54.5 71t22.5 81.5q0 68 -45 105.5t-111 37.5q-162 0 -162 -166h-98q0 135 73 202t189 67q113 0 184.5 -62t71.5 -176q0 -60 -23 -108t-56 -81.5t-65.5 -65.5t-55.5 -76.5t-23 -98.5v-80z
M98 98h828v1235h-828v-1235zM0 1434h1024v-1434h-1024v1434z" />
    <glyph glyph-name="ellipsis" unicode="&#x2e;&#x2e;&#x2e;" horiz-adv-x="1835" 
d="M135 115q0 62 42.5 104.5t105.5 42.5q61 0 104 -43t43 -104q0 -62 -43 -105t-104 -43q-63 0 -105.5 43t-42.5 105zM770 115q0 62 42.5 104.5t105.5 42.5q62 0 104.5 -43t42.5 -104q0 -62 -43 -105t-104 -43q-63 0 -105.5 43t-42.5 105zM1403 115q0 62 42 104.5t105 42.5
q62 0 105 -43t43 -104t-43 -104.5t-105 -43.5q-63 0 -105 43t-42 105z" />
    <glyph glyph-name="f_f" unicode="ff" horiz-adv-x="1511" 
d="M449 797v-613q0 -56 22 -78.5t72 -27.5l102 -10v-68q-192 6 -323 6l-277 -6v68l37 6q55 9 89 42t34 85v608h-148l-10 61q10 2 27.5 6t59.5 23t71 45v57q0 98 30.5 180t82.5 138t121.5 95t146.5 57t159 18q108 0 189 -32t123 -89q69 82 167.5 125t209.5 43q64 0 122 -17
t101 -57.5t43 -97.5q0 -58 -48.5 -88.5t-115.5 -30.5q-58 0 -106 25q40 31 40 80q0 82 -100 82q-71 0 -113.5 -46.5t-57.5 -121.5t-15 -189v-153h311v-125h-311v-613q0 -56 21 -78.5t71 -27.5l102 -10v-68q-190 6 -323 6l-277 -6v68l39 6q54 9 87.5 42t33.5 85v596h-489z
M449 1063v-141h489v92q0 95 20 168q-7 40 -24.5 74t-47 64t-76 47t-105.5 17q-115 0 -185.5 -83t-70.5 -238z" />
    <glyph glyph-name="fi" unicode="fi" horiz-adv-x="1388" 
d="M449 797v-613q0 -56 22 -78.5t72 -27.5l102 -10v-68q-192 6 -323 6l-277 -6v68l37 6q55 9 89 42t34 85v608h-148l-10 61q10 2 27.5 6t59.5 23t71 45v70q0 121 52.5 223t136 165.5t183 98.5t199.5 35q137 0 219 -54t82 -145q0 -63 -48 -96t-114 -33q-69 0 -112 29
q39 31 39 88q0 38 -29.5 72.5t-97.5 34.5q-119 0 -192.5 -98.5t-73.5 -258.5v-153h339q87 0 186 7.5t154 14.5l56 8v-768q0 -56 15.5 -78t53.5 -28l62 -10v-68q-127 6 -260 6l-267 -6v68l41 6q52 8 80.5 41t28.5 86v475q0 58 -30 89.5t-89 31.5h-370z" />
    <glyph glyph-name="fl" unicode="fl" horiz-adv-x="1337" 
d="M1163 1536v-1352q0 -56 16 -78t54 -28l63 -10v-68q-129 6 -260 6l-268 -6v68l41 6q52 8 80.5 41t28.5 86v1030q0 201 -203 201q-114 0 -190 -97t-76 -260v-153h395v-125h-395v-613q0 -56 22 -78.5t72 -27.5l102 -10v-68q-192 6 -323 6l-277 -6v68l37 6q55 9 89 42t34 85
v608h-148l-10 61q10 2 27.5 6t59.5 23t71 45v70q0 99 32.5 184.5t87 146.5t125.5 105t149 65t157 21q74 0 135 -17.5t94 -41.5q44 11 88.5 26t66.5 24z" />
    <glyph glyph-name="f_f_i" unicode="ffi" horiz-adv-x="2121" 
d="M449 797v-613q0 -56 22 -78.5t72 -27.5l102 -10v-68q-192 6 -323 6l-277 -6v68l37 6q55 9 89 42t34 85v608h-148l-10 61q10 2 27.5 6t59.5 23t71 45v57q0 98 30.5 180t82.5 138t121.5 95t146.5 57t159 18q118 0 202 -36.5t124 -102.5q84 89 202 137.5t238 48.5
q136 0 217.5 -54t81.5 -145q0 -63 -46.5 -96t-112.5 -33q-71 0 -115 29q41 32 41 88q0 38 -30.5 72.5t-98.5 34.5q-117 0 -190.5 -99t-73.5 -258v-153h338q87 0 185.5 7.5t154.5 14.5l55 8v-768q0 -56 16 -78t54 -28l63 -10v-68q-129 6 -262 6l-266 -6v68l41 6
q51 8 79.5 40.5t28.5 86.5v475q0 58 -30 89.5t-89 31.5h-368v-613q0 -56 21 -78.5t71 -27.5l102 -10v-68q-190 6 -323 6l-277 -6v68l39 6q54 9 87.5 42t33.5 85v596h-489zM938 1014q0 80 25 153q-6 42 -23 79t-47 69t-78 50.5t-110 18.5q-115 0 -185.5 -83t-70.5 -238v-141
h489v92z" />
    <glyph glyph-name="f_f_l" unicode="ffl" horiz-adv-x="2070" 
d="M449 797v-613q0 -56 22 -78.5t72 -27.5l102 -10v-68q-192 6 -323 6l-277 -6v68l37 6q55 9 89 42t34 85v608h-148l-10 61q10 2 27.5 6t59.5 23t71 45v57q0 98 30.5 180t82.5 138t121.5 95t146.5 57t159 18q115 0 198.5 -35t121.5 -98q80 86 193.5 133t230.5 47
q74 0 135 -17.5t94 -41.5q44 11 88.5 26t67.5 24l22 9v-1352q0 -56 16 -78t54 -28l64 -10v-68q-128 6 -261 6l-270 -6v68l43 6q50 8 79.5 41t29.5 86v1030q0 201 -203 201q-114 0 -190 -97t-76 -260v-153h395v-125h-395v-613q0 -56 21 -78.5t71 -27.5l102 -10v-68
q-188 6 -321 6l-277 -6v68l39 6q54 9 87.5 42t33.5 85v596h-489zM449 1063v-141h489v92q0 83 25 160q-16 89 -78.5 149.5t-179.5 60.5q-115 0 -185.5 -83t-70.5 -238z" />
    <glyph glyph-name="f_b" unicode="fb" horiz-adv-x="1892" 
d="M1305 803q-39 0 -98 -25.5t-79 -27.5v-502q0 -182 183 -182q76 0 136.5 54.5t92 140t31.5 181.5q0 161 -67 261t-199 100zM883 289v942q0 100 -40.5 150.5t-127.5 50.5q-114 0 -190 -97t-76 -260v-153h360v-125h-360v-613q0 -56 22 -78.5t72 -27.5l102 -10v-68
q-192 6 -323 6l-277 -6v68l37 6q55 9 89 42t34 85v608h-148l-10 61q10 2 27.5 6t59.5 23t71 45v70q0 99 32.5 184.5t87 146.5t125.5 105t149 65t157 21q142 0 211 -53l161 53v-702q24 6 58 26.5t64 40.5t81.5 36.5t110.5 16.5q110 0 202 -62.5t144.5 -169.5t52.5 -233
q0 -160 -75.5 -280.5t-199 -181t-274.5 -60.5q-189 0 -305 58l-104 -84l-45 24q24 63 34.5 133t10.5 191z" />
    <glyph glyph-name="f_h" unicode="fh" horiz-adv-x="1947" 
d="M1163 1536v-733q25 4 63.5 29t74.5 51.5t92 48.5t114 22q127 0 197 -74t70 -198v-498q0 -56 16 -78t53 -28l64 -10v-68q-129 6 -262 6l-244 -6v68l24 6q103 19 103 127v444q0 75 -38.5 114.5t-113.5 39.5q-43 0 -116.5 -37t-96.5 -39v-539q0 -56 16 -78t54 -28l63 -10
v-68q-129 6 -260 6l-268 -6v68l41 6q52 8 80.5 41t28.5 86v1030q0 201 -203 201q-114 0 -190 -97t-76 -260v-153h395v-125h-395v-613q0 -56 22 -78.5t72 -27.5l102 -10v-68q-192 6 -323 6l-277 -6v68l37 6q55 9 89 42t34 85v608h-148l-10 61q10 2 27.5 6t59.5 23t71 45v70
q0 99 32.5 184.5t87 146.5t125.5 105t149 65t157 21q74 0 135 -17.5t94 -41.5q44 11 88.5 26t66.5 24z" />
    <glyph glyph-name="f_j" unicode="fj" horiz-adv-x="1388" 
d="M819 797h-370v-613q0 -56 22 -78.5t72 -27.5l102 -10v-68q-192 6 -323 6l-277 -6v68l37 6q55 9 89 42t34 85v608h-148l-10 61q10 2 27.5 6t59.5 23t71 45v70q0 121 52.5 223t136 165.5t183 98.5t199.5 35q137 0 219 -54t82 -145q0 -63 -48 -96t-114 -33q-69 0 -112 29
q39 31 39 88q0 38 -29.5 72.5t-97.5 34.5q-119 0 -192.5 -98.5t-73.5 -258.5v-153h339q88 0 187 7.5t154 14.5l55 8v-811q0 -152 -32 -250t-108 -174q-42 -42 -103.5 -70.5t-124.5 -53t-101 -54.5l-41 55q23 21 90 69.5t102 94.5q72 95 72 281v637q0 62 -27 91.5t-92 29.5z
" />
    <glyph glyph-name="f_t" unicode="ft" horiz-adv-x="1486" 
d="M449 797v-613q0 -56 22 -78.5t72 -27.5l102 -10v-68q-192 6 -323 6l-277 -6v68l37 6q55 9 89 42t34 85v608h-148l-10 61q10 2 27.5 6t59.5 23t71 45v70q0 123 40.5 223.5t109 165t156.5 99t187 34.5q65 0 124 -17t102 -57.5t43 -97.5q0 -58 -49 -88.5t-115 -30.5
q-59 0 -107 25q39 31 39 80q0 82 -98 82q-55 0 -92.5 -25t-58 -74.5t-29 -111t-8.5 -146.5v-153h411q36 22 62 45q42 36 77.5 79t50.5 68l15 25l63 -19v-198h291v-125h-291v-557q0 -129 136 -129q50 0 96.5 6t67.5 12l22 6l8 -61q-73 -52 -147.5 -79.5t-188.5 -27.5
q-110 0 -174.5 66t-64.5 188v576h-434z" />
    <glyph glyph-name="f_r" unicode="fr" horiz-adv-x="1628" 
d="M449 797v-613q0 -56 22 -78.5t72 -27.5l102 -10v-68q-192 6 -323 6l-277 -6v68l37 6q55 9 89 42t34 85v608h-148l-10 61q10 2 27.5 6t59.5 23t71 45v70q0 123 40.5 223.5t109 165t156.5 99t187 34.5q65 0 124 -17t102 -57.5t43 -97.5q0 -58 -49 -88.5t-115 -30.5
q-59 0 -107 25q39 31 39 80q0 82 -98 82q-55 0 -92.5 -25t-58 -74.5t-29 -111t-8.5 -146.5v-153h339q86 0 185 7.5t155 14.5l56 8v-151q21 4 54 29.5t63.5 52.5t78.5 49t97 22q71 0 116 -39t45 -96q0 -70 -41 -105.5t-98 -35.5t-88 24q12 24 12 48q0 25 -15 41t-46 16
q-37 -1 -97 -41t-81 -43v-539q0 -56 21 -78.5t71 -27.5l102 -10v-68q-139 6 -323 6q-69 0 -138.5 -1.5t-104.5 -2.5l-34 -2v68l39 6q54 9 87.5 42t33.5 85v475q0 58 -30.5 89.5t-88.5 31.5h-370z" />
    <glyph glyph-name="T_h" unicode="Th" horiz-adv-x="2285" 
d="M1257 201v946q0 92 -52 136t-171 44h-254v-1120q0 -65 24 -89.5t91 -33.5l63 -10v-74q-170 8 -315 8q-72 0 -147 -2t-114 -4l-40 -2v74l49 10q131 26 131 188v1055h-149q-107 0 -176.5 -43.5t-106.5 -146.5l-59 10l24 319h47q17 -32 84 -32h930q82 0 178 25.5t152 50.5
l55 26v-733q26 4 64.5 29t74 51.5t91.5 48.5t114 22q128 0 197 -74t69 -198v-498q0 -56 16 -78t54 -28l64 -10v-68q-129 6 -260 6q-62 0 -123.5 -1.5t-91.5 -2.5l-31 -2v68l26 6q48 9 74.5 42t26.5 85v444q0 75 -38.5 114.5t-113.5 39.5q-43 0 -116.5 -37t-96.5 -39v-539
q0 -56 16 -78t54 -28l63 -10v-68q-129 6 -260 6l-268 -6v68l43 6q50 8 79 41t29 86z" />
    <glyph glyph-name="f_f_h" unicode="ffh" horiz-adv-x="2680" 
d="M449 1063v-141h489v92q0 83 25 160q-16 89 -78.5 149.5t-179.5 60.5q-115 0 -185.5 -83t-70.5 -238zM1651 201v1030q0 201 -203 201q-114 0 -190 -97t-76 -260v-153h395v-125h-395v-613q0 -56 21 -78.5t71 -27.5l104 -10v-68q-190 6 -323 6l-277 -6v68l39 6q54 9 87.5 42
t33.5 85v596h-489v-613q0 -56 22 -78.5t72 -27.5l102 -10v-68q-192 6 -323 6l-277 -6v68l37 6q55 9 89 42t34 85v608h-148l-10 61q10 2 27.5 6t59.5 23t71 45v57q0 98 30.5 180t82.5 138t121.5 95t146.5 57t159 18q115 0 198.5 -35t121.5 -98q80 86 193.5 133t230.5 47
q74 0 135 -17.5t94 -41.5q44 11 88.5 26t67.5 24l22 9v-733q22 4 50.5 21t58.5 38.5t64 42.5t79.5 35t92.5 14q128 0 197 -74t69 -198v-498q0 -56 16 -78t53 -28l64 -10v-68q-129 6 -260 6q-62 0 -123.5 -1.5t-92.5 -2.5l-30 -2v68l27 6q48 9 74 42t26 85v444
q0 75 -38.5 114.5t-113.5 39.5q-43 0 -116.5 -37t-96.5 -39v-539q0 -56 16 -78t54 -28l64 -10v-68q-128 6 -261 6l-270 -6v68l43 6q50 8 79.5 41t29.5 86z" />
    <glyph glyph-name="f_k" unicode="fk" horiz-adv-x="1925" 
d="M918 201v1030q0 201 -203 201q-114 0 -190 -97t-76 -260v-153h395v-125h-395v-613q0 -56 22 -78.5t72 -27.5l102 -10v-68q-192 6 -323 6l-277 -6v68l37 6q55 9 89 42t34 85v608h-148l-10 61q10 2 27.5 6t59.5 23t71 45v70q0 99 32.5 184.5t87 146.5t125.5 105t149 65
t157 21q74 0 135 -17.5t94 -41.5q44 11 88.5 26t66.5 24l23 9v-985h78l125 174q20 30 20 57q0 57 -69 66l-41 6v68q105 -7 283 -7q88 0 158 1.5t96 3.5l26 2v-66l-72 -8q-197 -20 -284 -131l-113 -144l219 -286q99 -130 177.5 -174.5t181.5 -44.5v-50q-91 -32 -195 -32
q-131 0 -211.5 53t-148.5 164l-138 227q-31 51 -92 51v-297q0 -56 16 -78t54 -28l63 -10v-68q-129 6 -260 6l-268 -6v68l41 6q52 8 80.5 41t28.5 86z" />
    <glyph glyph-name="f_f_k" unicode="ffk" horiz-adv-x="2658" 
d="M449 1063v-141h489v92q0 83 25 160q-16 89 -78.5 149.5t-179.5 60.5q-115 0 -185.5 -83t-70.5 -238zM1896 1536v-985h78l125 174q21 31 21 57q0 56 -70 66l-41 6v68q105 -7 283 -7q88 0 158 1.5t96 3.5l26 2v-66l-71 -8q-198 -20 -285 -131l-113 -144l219 -286
q99 -130 177.5 -174.5t181.5 -44.5v-50q-93 -32 -195 -32q-131 0 -211.5 53t-148.5 164l-137 227q-31 51 -93 51v-297q0 -56 16 -78t54 -28l64 -10v-68q-128 6 -261 6l-268 -6v68l41 6q52 8 80.5 41t28.5 86v1030q0 201 -203 201q-114 0 -190 -97t-76 -260v-153h395v-125
h-395v-613q0 -56 22 -78.5t72 -27.5l102 -10v-68q-190 6 -323 6l-277 -6v68l39 6q54 9 87.5 42t33.5 85v596h-489v-613q0 -56 22 -78.5t72 -27.5l102 -10v-68q-192 6 -323 6l-277 -6v68l37 6q55 9 89 42t34 85v608h-148l-10 61q10 2 27.5 6t59.5 23t71 45v57q0 98 30.5 180
t82.5 138t121.5 95t146.5 57t159 18q115 0 198.5 -35t121.5 -98q80 86 193.5 133t230.5 47q74 0 135 -17.5t94 -41.5q44 11 88.5 26t67.5 24z" />
    <glyph glyph-name=".notdef" horiz-adv-x="1024" 
d="M551 254h-113v113h113v-113zM543 469h-97v80q0 63 22.5 115t54.5 87t64 67.5t54.5 71t22.5 81.5q0 68 -45 105.5t-111 37.5q-162 0 -162 -166h-98q0 135 73 202t189 67q113 0 184.5 -62t71.5 -176q0 -60 -23 -108t-56 -81.5t-65.5 -65.5t-55.5 -76.5t-23 -98.5v-80z
M98 98h828v1235h-828v-1235zM0 1434h1024v-1434h-1024v1434z" />
    <glyph glyph-name=".null" horiz-adv-x="0" 
 />
    <glyph glyph-name="nonmarkingreturn" horiz-adv-x="682" 
 />
    <glyph glyph-name="space" unicode=" " horiz-adv-x="512" 
 />
    <glyph glyph-name="exclam" unicode="!" horiz-adv-x="565" 
d="M135 115q0 62 42.5 104.5t105.5 42.5q61 0 104 -43t43 -104q0 -62 -43 -105t-104 -43q-63 0 -105.5 43t-42.5 105zM328 385h-90q4 35 4 94q0 101 -18 216t-39.5 201.5t-39.5 196t-18 201.5q0 76 45.5 122t110.5 46t110 -46t45 -122q0 -114 -28.5 -255t-57 -287
t-28.5 -273z" />
    <glyph glyph-name="quotedbl" unicode="&#x22;" horiz-adv-x="692" 
d="M186 1452q46 0 78.5 -32.5t32.5 -78.5q0 -66 -33 -195.5t-33 -199.5l5 -86h-99q4 59 4 86q0 64 -32.5 193t-32.5 202q0 46 32 78.5t78 32.5zM506 1452q46 0 78 -32.5t32 -78.5q0 -66 -32.5 -195.5t-32.5 -199.5l4 -86h-98q4 59 4 86q0 64 -33 193t-33 202q0 46 32.5 78.5
t78.5 32.5z" />
    <glyph glyph-name="numbersign" unicode="#" horiz-adv-x="1024" 
d="M471 0l59 207h-174l-59 -207h-170l59 207h-163l43 143h163l62 215h-158l43 144h158l65 225h170l-65 -225h174l65 225h170l-65 -225h151l-43 -144h-151l-62 -215h146l-43 -143h-146l-59 -207h-170zM461 565l-62 -215h174l62 215h-174z" />
    <glyph glyph-name="dollar" unicode="$" horiz-adv-x="831" 
d="M827 756q0 -55 -33 -80t-79 -25q-59 0 -88 25q18 30 18 63q0 51 -50 85t-126 34q-66 0 -103.5 -33.5t-37.5 -87.5q0 -38 24.5 -69.5t63.5 -55t86 -46.5t94 -51.5t86 -63t63.5 -88t24.5 -119.5q0 -208 -250 -262l6 -318h-129q4 141 4 303q-53 0 -106 9t-109.5 29.5
t-91.5 63.5t-35 103q0 48 39 76t97 28q31 0 69 -10q-10 -34 -10 -69q0 -134 131 -134q79 0 126.5 36.5t47.5 90.5q0 49 -24 86.5t-62.5 62.5t-85 47.5t-93 48t-85 56.5t-62.5 81t-24 114q0 101 73.5 174t204.5 90l-4 334h129q-6 -154 -6 -332q130 -8 218.5 -60t88.5 -136z
" />
    <glyph glyph-name="percent" unicode="%" horiz-adv-x="1609" 
d="M737 635q65 108 162 274t161 279l64 112h197q-306 -471 -447 -700q-58 -96 -154.5 -258.5t-163.5 -277.5l-67 -115h-196q313 483 444 686zM416 754q65 0 100 61.5t35 163.5q0 117 -46 181.5t-118 64.5q-64 0 -99.5 -62t-35.5 -164q0 -117 46 -181t118 -64zM422 1317
q132 0 222.5 -85t90.5 -228q0 -139 -96 -240.5t-258 -101.5q-132 0 -222.5 85t-90.5 228q0 139 96 240.5t258 101.5zM1223 20q64 0 99.5 62t35.5 164q0 117 -46 181.5t-118 64.5q-64 0 -99.5 -62t-35.5 -164q0 -117 46 -181.5t118 -64.5zM1229 584q132 0 222.5 -85.5
t90.5 -228.5q0 -139 -96 -240.5t-258 -101.5q-132 0 -223 85.5t-91 228.5q0 139 96.5 240.5t258.5 101.5z" />
    <glyph glyph-name="ampersand" unicode="&#x26;" horiz-adv-x="1486" 
d="M279 322q0 -92 60.5 -142.5t170.5 -50.5q138 0 268 68l-344 383q-67 -42 -111 -109.5t-44 -148.5zM1077 668q0 103 -104 120l-82 15v74q137 -11 293 -11q76 0 143 3t96 5l29 3v-74l-84 -17q-138 -26 -188 -172q-7 -19 -22.5 -66.5t-24.5 -71t-25 -62t-35 -72t-43 -68.5
q72 -90 146 -133t135 -43q87 0 162 49l26 -47q-52 -62 -140.5 -97.5t-162.5 -35.5q-198 0 -350 162q-45 -35 -75.5 -55t-87.5 -49t-126.5 -43.5t-150.5 -14.5q-147 0 -242.5 80t-95.5 207q0 75 31.5 141.5t83 113.5t100 78.5t100.5 53.5q-78 90 -125 196.5t-47 211.5
q0 124 69 220t176.5 144.5t231.5 48.5q156 0 244 -61t88 -162q0 -67 -48.5 -105t-115.5 -38q-60 0 -106 28q47 50 47 119q0 56 -41.5 93.5t-126.5 37.5t-146 -64t-61 -190q0 -108 45 -197t133 -184l367 -393q110 148 110 322z" />
    <glyph glyph-name="quotesingle" unicode="'" horiz-adv-x="372" 
d="M186 1452q46 0 78.5 -32.5t32.5 -78.5q0 -66 -33 -195.5t-33 -199.5l5 -86h-99q4 59 4 86q0 64 -32.5 193t-32.5 202q0 46 32 78.5t78 32.5z" />
    <glyph glyph-name="parenleft" unicode="(" horiz-adv-x="696" 
d="M57 516q0 129 31 254.5t82 228.5t120.5 197t142 165t151.5 128l53 -51q-206 -206 -290.5 -429.5t-84.5 -492.5t84.5 -492.5t290.5 -429.5l-53 -51q-79 57 -151.5 128t-142 165t-120.5 197t-82 228.5t-31 254.5z" />
    <glyph glyph-name="parenright" unicode=")" horiz-adv-x="706" 
d="M643 516q0 -160 -46 -312.5t-124 -275t-167 -217.5t-189 -168l-54 51q206 206 290.5 429.5t84.5 492.5t-84.5 492.5t-290.5 429.5l54 51q100 -73 189 -168t167 -217.5t124 -275t46 -312.5z" />
    <glyph glyph-name="asterisk" unicode="*" horiz-adv-x="727" 
d="M362 840q-26 0 -43.5 17.5t-17.5 43.5q0 48 23 189q-99 -80 -152 -113q-16 -8 -31 -8q-26 0 -43.5 17.5t-17.5 43.5q0 32 26 51q24 16 183 76q-61 21 -115.5 46t-69.5 36q-24 16 -24 49q0 26 17.5 44t43.5 18q11 0 23 -4q57 -22 160 -121q-23 122 -23 188q0 26 17.5 44
t43.5 18t44 -18t18 -44q0 -66 -23 -188q103 99 160 121q12 4 23 4q26 0 43.5 -18t17.5 -44q0 -33 -24 -49q-15 -11 -69.5 -36t-115.5 -46q157 -59 182 -76q27 -19 27 -51q0 -26 -17.5 -43.5t-43.5 -17.5q-15 0 -31 8q-53 33 -152 113q23 -141 23 -189q0 -26 -18 -43.5
t-44 -17.5z" />
    <glyph glyph-name="plus" unicode="+" horiz-adv-x="935" 
d="M375 545v358h184v-358h361v-185h-361v-360h-184v360h-359v185h359z" />
    <glyph glyph-name="comma" unicode="," horiz-adv-x="571" 
d="M135 115q0 63 37.5 105t99.5 42q73 0 118.5 -57.5t45.5 -132.5q0 -157 -94 -270.5t-244 -139.5l-20 49q79 31 126.5 90t47.5 127q0 125 -117 187z" />
    <glyph glyph-name="hyphen" unicode="-" horiz-adv-x="729" 
d="M668 555q0 -21 -9 -35l-567 -121l-35 50q89 68 234.5 132t267.5 64q47 0 78 -24t31 -66z" />
    <glyph glyph-name="period" unicode="." horiz-adv-x="565" 
d="M135 115q0 62 42.5 104.5t105.5 42.5q61 0 104 -43t43 -104q0 -62 -43 -105t-104 -43q-63 0 -105.5 43t-42.5 105z" />
    <glyph glyph-name="slash" unicode="/" horiz-adv-x="841" 
d="M338 489q71 230 143 473.5t108 371.5l36 128h196q-163 -456 -323 -973q-60 -196 -130.5 -439t-111.5 -388l-41 -145h-197q185 535 320 972z" />
    <glyph glyph-name="zero" unicode="0" horiz-adv-x="1255" 
d="M649 61q65 0 116 33.5t84.5 90t55 138t30.5 171t9 194.5q0 302 -97 491t-241 189q-65 0 -116 -33.5t-84.5 -90t-55 -138t-30.5 -171t-9 -194.5q0 -302 97 -491t241 -189zM657 1462q110 0 206.5 -48t169 -137t115 -225.5t42.5 -303.5q0 -166 -38.5 -307.5t-111 -247.5
t-186.5 -166t-256 -60q-110 0 -206 48t-169 137t-115 226t-42 304q0 166 38 307.5t111 247t186.5 165.5t255.5 60z" />
    <glyph glyph-name="one" unicode="1" horiz-adv-x="749" 
d="M492 1434v-1231q0 -55 32.5 -86t87.5 -37l72 -8v-72q-119 6 -281 6l-337 -6v72l49 8q151 25 151 201v800q0 50 -8 83t-29 60t-62 39.5t-104 12.5v72q95 5 237 32.5t192 53.5z" />
    <glyph glyph-name="two" unicode="2" horiz-adv-x="1159" 
d="M500 1329q-79 0 -128.5 -38.5t-49.5 -88.5q0 -55 63 -78q-7 -41 -41.5 -66.5t-75.5 -25.5q-58 0 -100.5 38.5t-42.5 111.5q0 113 115 196.5t311 83.5q214 0 337.5 -113t123.5 -292q0 -91 -34.5 -181t-84.5 -160t-130 -149.5t-145 -133t-158 -129.5t-143 -120h449
q213 0 289 191l63 -19l-121 -356h-940l-18 57l323 326l13 13q61 61 91 91.5t79.5 84.5t75 87.5t58.5 83.5t48.5 90t27 89t11.5 98q0 135 -66.5 222t-199.5 87z" />
    <glyph glyph-name="three" unicode="3" horiz-adv-x="1142" 
d="M561 1462q202 0 310 -88t108 -221q0 -103 -73 -187.5t-185 -127.5l2 -9q155 -15 248.5 -112t93.5 -238q0 -121 -55.5 -220t-149.5 -162t-214.5 -96.5t-254.5 -33.5q-137 0 -225 54.5t-88 142.5q0 59 38 89t97 30q46 0 76 -15q-15 -40 -15 -69q0 -49 46.5 -74t123.5 -25
q106 0 193.5 49.5t135.5 129.5t48 172q0 140 -77 214t-230 74q-30 0 -64.5 -3t-53.5 -6l-19 -3l-19 74q170 34 272.5 114t102.5 199q0 35 -12 70.5t-36 69t-69.5 54.5t-105.5 21q-80 0 -129 -39.5t-49 -91.5q0 -51 63 -74q-7 -41 -41 -66.5t-75 -25.5q-58 0 -101 38.5
t-43 111.5q0 107 119 193.5t307 86.5z" />
    <glyph glyph-name="four" unicode="4" horiz-adv-x="1216" 
d="M1167 365h-274v-209q0 -66 78 -74l90 -10v-72h-549v72l68 10q40 6 64 35.5t24 72.5v175h-580l-39 57l338 514q72 109 100.5 173.5t28.5 137.5q0 80 -76 133q46 82 131 82q65 0 107.5 -48.5t42.5 -127.5q0 -106 -61.5 -214t-178.5 -249l-229 -276h416v282l225 115v-397
h274v-182z" />
    <glyph glyph-name="five" unicode="5" horiz-adv-x="1120" 
d="M377 -33q-145 0 -232.5 54t-87.5 143q0 59 38.5 89t97.5 30q45 0 75 -15q-14 -37 -14 -63q0 -49 50 -77t126 -28q161 0 259.5 103t98.5 264q0 148 -102 227.5t-276 79.5q-53 0 -105 -5.5t-78 -10.5l-26 -6l84 682h536q68 0 110.5 27.5t69.5 97.5l62 -15l-76 -297h-629
l-41 -284q72 8 156 8q137 0 245 -36.5t176.5 -101t104 -150t35.5 -185.5t-34.5 -186t-95 -149t-143 -107.5t-180 -66.5t-204.5 -22z" />
    <glyph glyph-name="six" unicode="6" 
d="M561 702q-47 0 -121.5 -34t-101.5 -41q-6 -37 -6 -121q0 -117 29.5 -214.5t90 -159.5t142.5 -62q71 0 121 48t71 118.5t21 154.5q0 126 -67.5 218.5t-178.5 92.5zM932 1495l26 -57q-101 -25 -190 -77t-156 -120.5t-120.5 -152.5t-87.5 -173t-52 -182q23 5 56 23t63 35.5
t79 32t103 14.5q75 0 145 -25t128 -72.5t92.5 -126t34.5 -176.5q0 -96 -34.5 -181t-98.5 -149.5t-161.5 -101.5t-215.5 -37q-94 0 -176 36t-145 103.5t-99.5 173t-36.5 236.5q0 180 52.5 334t137 260.5t197.5 188t226.5 127t232.5 67.5z" />
    <glyph glyph-name="seven" unicode="7" horiz-adv-x="1093" 
d="M143 1434h887l19 -35l-377 -592q-203 -324 -203 -514q0 -72 22 -138.5t44 -96.5l22 -31q-72 -60 -149 -60q-85 0 -140 62t-55 161q0 128 43.5 234.5t161.5 277.5l426 551l-492 -6q-95 -1 -160.5 -56.5t-87.5 -137.5l-47 8z" />
    <glyph glyph-name="eight" unicode="8" horiz-adv-x="1077" 
d="M317 319q0 -111 58 -184.5t149 -73.5q100 0 156.5 71t56.5 167q0 48 -27 101t-66 95t-78 77t-66 54l-27 19q-15 -22 -52.5 -68t-54.5 -71.5t-33 -76t-16 -110.5zM561 1366q-98 0 -151.5 -57.5t-53.5 -147.5q0 -95 61 -174.5t183 -157.5q16 27 47 65.5t51.5 66t37 82
t16.5 124.5q0 85 -54 142t-137 57zM975 1151q0 -62 -22 -113.5t-58 -88t-72.5 -65t-75.5 -58t-57 -52.5q30 -19 57 -39t73.5 -62t79.5 -83t58 -99t25 -114q0 -83 -28.5 -153t-74.5 -116.5t-106.5 -79t-123 -47t-124.5 -14.5q-118 0 -215.5 40t-158 121.5t-60.5 190.5
q0 73 31.5 134.5t70 96t95.5 82.5t86 81q-130 93 -192 183.5t-62 213.5q0 165 122.5 258.5t321.5 93.5q177 0 293.5 -82.5t116.5 -228.5z" />
    <glyph glyph-name="nine" unicode="9" 
d="M578 729q47 0 121 34.5t102 41.5q6 37 6 121q0 117 -29.5 214.5t-90 159.5t-142.5 62q-54 0 -96 -27.5t-67 -74t-37.5 -102.5t-12.5 -118q0 -126 67.5 -218.5t178.5 -92.5zM207 -63l-27 57q125 31 231.5 102.5t180 168t122.5 206t72 227.5q-23 -5 -56 -23t-63 -35.5
t-79 -31.5t-103 -14q-60 0 -116.5 15t-108 47.5t-90 78.5t-61.5 112.5t-23 145.5q0 96 34.5 181t98.5 149.5t161.5 101.5t215.5 37q94 0 176 -36t145 -103.5t99.5 -173t36.5 -236.5q0 -151 -36 -283.5t-100 -232t-146 -180t-178.5 -136t-192 -91t-193.5 -53.5z" />
    <glyph glyph-name="colon" unicode=":" horiz-adv-x="565" 
d="M135 115q0 62 42.5 104.5t105.5 42.5q61 0 104 -43t43 -104q0 -62 -43 -105t-104 -43q-63 0 -105.5 43t-42.5 105zM135 700q0 62 42.5 105t105.5 43q61 0 104 -43t43 -105t-43 -104.5t-104 -42.5q-63 0 -105.5 42.5t-42.5 104.5z" />
    <glyph glyph-name="semicolon" unicode=";" horiz-adv-x="565" 
d="M135 700q0 62 42.5 105t105.5 43q61 0 104 -43t43 -105t-43 -104.5t-104 -42.5q-63 0 -105.5 42.5t-42.5 104.5zM135 115q0 63 37.5 105t99.5 42q73 0 118.5 -57.5t45.5 -132.5q0 -157 -94 -270.5t-244 -139.5l-20 49q79 31 126.5 90t47.5 127q0 125 -117 187z" />
    <glyph glyph-name="less" unicode="&#x3c;" horiz-adv-x="1136" 
d="M1001 0l-882 373v157l882 373v-182l-659 -270l659 -269v-182z" />
    <glyph glyph-name="equal" unicode="=" horiz-adv-x="935" 
d="M920 154h-904v184h904v-184zM920 750v-183h-904v183h904z" />
    <glyph glyph-name="greater" unicode="&#x3e;" horiz-adv-x="1116" 
d="M1001 373l-882 -373v182l659 269l-659 270v182l882 -373v-157z" />
    <glyph glyph-name="question" unicode="?" horiz-adv-x="905" 
d="M399 1462q105 0 198.5 -44.5t151.5 -124.5t58 -177q0 -69 -21 -128t-55 -102t-75.5 -81.5t-82.5 -74.5t-75 -72t-55 -82.5t-21 -98.5q0 -55 18 -92h-59q-50 58 -72 114t-22 136q0 73 35.5 139.5t86 117.5t101 99t86 104t35.5 113q0 52 -59.5 92.5t-143.5 40.5
q-137 0 -137 -102q0 -14 2.5 -27.5t4.5 -20.5l3 -7q-29 -10 -70 -10q-58 0 -95.5 32.5t-37.5 79.5q0 81 82 128.5t219 47.5zM262 115q0 62 42.5 104.5t105.5 42.5q62 0 104.5 -43t42.5 -104q0 -62 -43 -105t-104 -43q-63 0 -105.5 43t-42.5 105z" />
    <glyph glyph-name="at" unicode="@" horiz-adv-x="1634" 
d="M993 199q-53 0 -78.5 23.5t-25.5 76.5q0 76 41 172h-8q-21 -45 -44.5 -85t-59 -86t-80.5 -73.5t-93 -27.5q-73 0 -110 50.5t-37 133.5q0 123 62 242t167 195.5t219 76.5q34 0 64.5 -13.5t40.5 -29.5q36 84 102 84q49 0 76 -35q-25 -28 -75 -132t-94 -230.5t-44 -194.5
q0 -13 2.5 -21.5t14 -17t32.5 -8.5q177 0 296.5 126t119.5 333q0 89 -34 166.5t-98 137.5t-166 95t-229 35q-140 0 -265.5 -63.5t-212 -166.5t-137 -233.5t-50.5 -263.5q0 -118 36.5 -219.5t109 -180.5t190.5 -124t270 -45q101 0 195.5 24.5t139 47t70.5 42.5q7 -14 7 -22
q0 -28 -38.5 -60t-100.5 -59.5t-151.5 -45.5t-182.5 -18q-220 0 -388 78t-263 228.5t-95 353.5q0 110 36 224t110.5 221t177.5 190t249 133.5t312 50.5q141 0 260 -41.5t198.5 -112t123.5 -165t44 -199.5q0 -108 -38 -202t-100 -159.5t-141.5 -113t-163 -70t-163.5 -22.5z
M700 303q40 0 87.5 48t89 122t75 148t56.5 141q-29 63 -93 63q-73 0 -137 -62.5t-99.5 -157t-35.5 -191.5q0 -57 12 -84t45 -27z" />
    <glyph glyph-name="A" unicode="A" horiz-adv-x="1507" 
d="M678 1446l151 20l439 -1210q30 -85 66.5 -123t95.5 -49l57 -10v-74q-111 8 -293 8q-93 0 -173.5 -2t-114.5 -4l-34 -2v74l41 10q51 12 78 32.5t27 59.5q0 38 -14 76l-101 276h-448l-88 -256q-19 -59 -19 -90q0 -41 26.5 -65t86.5 -33l69 -10v-74q-137 8 -274 8
q-51 0 -110.5 -2t-93.5 -4l-34 -2v74l45 10q56 12 102.5 60t76.5 128zM684 1180l-188 -539h366z" />
    <glyph glyph-name="B" unicode="B" horiz-adv-x="1236" 
d="M514 1337v-553q37 11 88 11q44 0 100 -9q55 42 89 127t34 177q0 115 -60.5 187.5t-166.5 72.5q-45 0 -84 -13zM514 705v-502q0 -55 34.5 -87t106.5 -32q116 0 192.5 80t76.5 211q0 90 -33 157.5t-87.5 104.5t-114.5 54.5t-124 17.5q-31 0 -51 -4zM393 1425
q45 0 122.5 4.5t109.5 4.5q213 0 335.5 -91t122.5 -243q0 -60 -21.5 -113t-52.5 -87.5t-71.5 -62t-71.5 -41.5t-59 -22q170 -31 279.5 -131t109.5 -252q0 -83 -29 -152t-88 -123.5t-158 -85t-229 -30.5q-40 0 -144.5 4t-170.5 4q-72 0 -147 -2t-114 -4l-40 -2v74l49 10
q131 26 131 188v938q0 76 -22.5 102.5t-92.5 37.5l-63 10v74q170 -9 315 -9z" />
    <glyph glyph-name="C" unicode="C" horiz-adv-x="1460" 
d="M1374 1407v-383h-67q-33 154 -148 246t-311 92q-229 0 -365.5 -169.5t-136.5 -449.5q0 -135 37 -255.5t107 -214.5t180.5 -149.5t247.5 -55.5q85 0 155 28.5t114.5 76.5t71.5 102t39 114l68 -4l-37 -340q-85 0 -163 -19.5t-166 -39t-197 -19.5q-160 0 -295.5 47.5
t-235.5 136.5t-156.5 225t-56.5 304q0 123 34.5 238t104 213.5t165 172.5t226 116t279.5 42q107 0 255.5 -27.5t250.5 -27.5z" />
    <glyph glyph-name="D" unicode="D" horiz-adv-x="1581" 
d="M678 84q130 0 228 30.5t160 83t100.5 130.5t53.5 164t15 194q0 303 -162 483.5t-428 180.5q-92 0 -131 -13v-1114q0 -139 164 -139zM713 0q-63 0 -162 4t-174 4q-72 0 -147 -2t-114 -4l-40 -2v74l49 10q131 26 131 188v938q0 76 -22.5 102.5t-92.5 37.5l-63 10v74
q170 -9 315 -9q88 0 228 4.5t186 4.5q147 0 275.5 -45t227 -129t155.5 -215.5t57 -294.5q0 -151 -54.5 -286.5t-155 -239t-255.5 -164t-344 -60.5z" />
    <glyph glyph-name="E" unicode="E" horiz-adv-x="1159" 
d="M377 8q-72 0 -147 -2t-114 -4l-40 -2v74l49 10q131 26 131 188v938q0 76 -22.5 102.5t-92.5 37.5l-63 10v74q170 -9 315 -9l662 9v-314h-68q-15 111 -102 170.5t-244 59.5q-88 0 -127 -13v-557h131q73 0 119 39t57 107l15 94h73q-8 -104 -8 -262q0 -56 2 -116.5t4 -93.5
l2 -32h-75l-13 62q-22 94 -149 94h-158v-455q0 -133 166 -133q147 0 228.5 60.5t125.5 191.5l68 -8l-58 -328q-450 8 -667 8z" />
    <glyph glyph-name="F" unicode="F" horiz-adv-x="1159" 
d="M256 272v938q0 76 -22.5 102.5t-92.5 37.5l-63 10v74q170 -9 315 -9l662 9v-314h-68q-15 111 -102 170.5t-244 59.5q-88 0 -127 -13v-577h131q73 0 119 38.5t57 106.5l15 94h73q-8 -104 -8 -262q0 -56 2 -116t4 -93l2 -32h-75l-13 61q-22 94 -149 94h-158v-428
q0 -75 22.5 -101.5t92.5 -37.5l63 -10v-74q-170 8 -315 8q-72 0 -147 -2t-114 -4l-40 -2v74l49 10q131 26 131 188z" />
    <glyph glyph-name="G" unicode="G" horiz-adv-x="1597" 
d="M1386 356v-311q-97 0 -272.5 -39t-310.5 -39q-160 0 -295.5 47.5t-235.5 136.5t-156.5 225t-56.5 304q0 123 34.5 238t104 213.5t165 172.5t226 116t279.5 42q107 0 255.5 -27.5t250.5 -27.5v-383h-67q-20 148 -140.5 243t-318.5 95q-229 0 -365.5 -169.5t-136.5 -449.5
q0 -135 37 -255.5t107 -214.5t180.5 -149.5t247.5 -55.5q105 0 155.5 44t50.5 117v174q0 64 -32 93t-115 43l-37 6v73h596v-73l-27 -6q-123 -28 -123 -183z" />
    <glyph glyph-name="H" unicode="H" horiz-adv-x="1720" 
d="M1206 801v409q0 76 -22 102.5t-92 37.5l-64 10v74q170 -9 315 -9q72 0 147.5 2.5t115.5 4.5l39 2v-74l-50 -10q-131 -26 -131 -189v-938q0 -75 22.5 -101.5t92.5 -37.5l63 -10v-74q-170 8 -315 8q-72 0 -147.5 -2t-114.5 -4l-39 -2v74l49 10q131 26 131 188v414h-692
v-463q0 -75 22.5 -101.5t92.5 -37.5l63 -10v-74q-170 8 -315 8q-72 0 -147 -2t-114 -4l-40 -2v74l49 10q131 26 131 188v938q0 76 -22.5 102.5t-92.5 37.5l-63 10v74q170 -9 315 -9q72 0 147 2.5t114 4.5l40 2v-74l-49 -10q-131 -26 -131 -189v-360h692z" />
    <glyph glyph-name="I" unicode="I" horiz-adv-x="770" 
d="M256 272v938q0 76 -22.5 102.5t-92.5 37.5l-63 10v74q170 -9 315 -9q72 0 147 2.5t114 4.5l40 2v-74l-49 -10q-131 -26 -131 -189v-938q0 -75 22.5 -101.5t92.5 -37.5l63 -10v-74q-170 8 -315 8q-72 0 -147 -2t-114 -4l-40 -2v74l49 10q131 26 131 188z" />
    <glyph glyph-name="J" unicode="J" horiz-adv-x="770" 
d="M256 90v1120q0 76 -22.5 102.5t-92.5 37.5l-63 10v74q170 -9 315 -9q72 0 147 2.5t114 4.5l40 2v-74l-49 -10q-131 -26 -131 -189v-997q0 -165 -31 -260.5t-104 -173.5q-50 -54 -160.5 -105.5t-144.5 -83.5l-45 64q15 26 82.5 88.5t93.5 113.5q31 59 41 125.5t10 157.5z
" />
    <glyph glyph-name="K" unicode="K" horiz-adv-x="1505" 
d="M256 272v938q0 76 -22.5 102.5t-92.5 37.5l-63 10v74q170 -9 315 -9q72 0 147 2.5t114 4.5l40 2v-74l-49 -10q-131 -26 -131 -189v-434h133l373 524q20 28 20 47q0 41 -65 52l-60 10v74q128 -9 302 -9q79 0 145 2.5t92 4.5l27 2v-74l-41 -10q-84 -21 -142 -52t-98 -86
l-340 -456l387 -498q64 -83 138 -133.5t135 -50.5q17 0 32.5 1.5t21.5 2.5l7 2v-62q-71 -34 -184 -34q-295 0 -428 206l-230 347q-34 53 -77.5 78.5t-83.5 25.5q-37 0 -64 -10v-408q0 -75 22.5 -101.5t92.5 -37.5l63 -10v-74q-170 8 -315 8q-72 0 -147 -2t-114 -4l-40 -2v74
l49 10q131 26 131 188z" />
    <glyph glyph-name="L" unicode="L" horiz-adv-x="1148" 
d="M514 1161v-958q0 -36 14.5 -60.5t42 -36.5t57 -17t68.5 -5q137 0 222 69t126 183l68 -8l-55 -328q-459 8 -680 8q-72 0 -147 -2t-114 -4l-40 -2v74l49 10q131 26 131 188v938q0 76 -22.5 102.5t-92.5 37.5l-63 10v74q170 -9 315 -9q72 0 147 2.5t114 4.5l40 2v-74
l-49 -10q-131 -26 -131 -189z" />
    <glyph glyph-name="M" unicode="M" horiz-adv-x="2068" 
d="M1956 84l69 -10v-72q-194 6 -346 6q-70 0 -155 -2t-135 -4l-50 -2v74l47 10q175 39 158 248l-57 669l-477 -1009l-82 -10l-502 1015l-33 -692q-5 -101 31 -155t123 -66l71 -10v-74q-130 8 -296 8q-70 0 -140 -2t-104 -4l-35 -2v74l53 10q158 32 174 278l56 828
q5 81 -21.5 118t-97.5 46l-49 6v74q176 -9 377 -9q0 -84 55 -196l436 -922l442 916q68 136 68 200q199 0 354 11l6 -74l-49 -10q-71 -14 -98 -57t-18 -140l90 -936q6 -62 37.5 -93t97.5 -40z" />
    <glyph glyph-name="N" unicode="N" horiz-adv-x="1654" 
d="M1407 1425q63 0 119 2.5t81 4.5l25 2v-74l-37 -6q-135 -22 -135 -207v-1155l-104 -12l-971 1073v-779q0 -53 11 -87.5t37 -54.5t55.5 -30t80.5 -18l60 -10v-74q-166 8 -285 8q-65 0 -140 -2t-117 -4l-42 -2v74l45 10q82 18 119 58t37 128v961q0 56 -35.5 85t-112.5 38
l-51 6v74q177 -11 404 -11q13 -58 39.5 -101.5t84.5 -107.5l752 -839v809q0 89 -41 125.5t-129 44.5l-61 6v74q170 -9 311 -9z" />
    <glyph glyph-name="O" unicode="O" horiz-adv-x="1642" 
d="M864 68q112 0 196.5 48t135 134t75.5 195.5t25 240.5q0 149 -41.5 276.5t-112 214.5t-165 136t-199.5 49q-112 0 -196.5 -48.5t-135 -134.5t-75.5 -195.5t-25 -240.5q0 -149 41.5 -276.5t112 -214t165 -135.5t199.5 -49zM868 1462q145 0 275 -49.5t228 -139t155 -225
t57 -298.5q0 -121 -33.5 -235.5t-102 -213.5t-163.5 -173.5t-226.5 -117.5t-283.5 -43q-145 0 -275 49.5t-227.5 139t-155 225.5t-57.5 299q0 121 33.5 235t102 213.5t163.5 174t226.5 117t283.5 42.5z" />
    <glyph glyph-name="P" unicode="P" horiz-adv-x="1200" 
d="M514 676v-453q0 -75 22.5 -101.5t92.5 -37.5l63 -10v-74q-170 8 -315 8q-72 0 -147 -2t-114 -4l-40 -2v74l49 10q131 26 131 188v938q0 76 -22.5 102.5t-92.5 37.5l-63 10v74q170 -9 315 -9q51 0 130.5 4.5t125.5 4.5q220 0 356 -102.5t136 -293.5q0 -84 -22.5 -155
t-60.5 -119.5t-88 -83t-105 -50.5t-111 -16q-54 0 -102.5 15.5t-83 31t-54.5 15.5zM514 1337v-589q27 0 76 -16.5t80 -16.5q62 0 107.5 48.5t66 120.5t20.5 154q0 144 -72 228t-194 84q-45 0 -84 -13z" />
    <glyph glyph-name="Q" unicode="Q" horiz-adv-x="1642" 
d="M868 1462q145 0 275 -49.5t228 -139t155 -225t57 -298.5q0 -129 -39 -250.5t-112.5 -223t-186.5 -176.5t-252 -108q111 -26 289 -85.5t318 -106.5t338 -84.5t384 -37.5q145 0 339 35t339 90l11 -18q-345 -297 -795 -297q-127 0 -258 31t-251.5 83t-231.5 106.5
t-242 114.5t-238 95q-117 39 -221 49q-145 0 -275 49.5t-227.5 139t-155 225.5t-57.5 299q0 121 33.5 235t102 213.5t163.5 174t226.5 117t283.5 42.5zM864 68q112 0 196.5 48t135 134t75.5 195.5t25 240.5q0 149 -41.5 276.5t-112 214.5t-165 136t-199.5 49
q-112 0 -196.5 -48.5t-135 -134.5t-75.5 -195.5t-25 -240.5q0 -149 41.5 -276.5t112 -214t165 -135.5t199.5 -49z" />
    <glyph glyph-name="R" unicode="R" horiz-adv-x="1431" 
d="M514 621v-398q0 -75 22.5 -101.5t92.5 -37.5l63 -10v-74q-170 8 -315 8q-72 0 -147 -2t-114 -4l-40 -2v74l49 10q131 26 131 188v938q0 76 -22.5 102.5t-92.5 37.5l-63 10v74q170 -9 315 -9q58 0 155 4.5t136 4.5q103 0 187 -22.5t138.5 -58.5t92 -84t53.5 -96t16 -96
q0 -78 -25.5 -145t-62 -110.5t-83.5 -77t-83.5 -50t-68.5 -24.5q31 -17 60.5 -46t44.5 -50t36 -54l168 -262q57 -88 139 -140t183 -52v-60q-50 -22 -179 -22q-290 0 -417 254l-142 278q-31 61 -67.5 90t-91.5 29q-16 0 -33 -3.5t-26 -7.5zM514 1337v-632q49 32 127 32
q27 0 52 -3.5t37 -7.5l11 -3q61 42 111.5 130.5t50.5 197.5q0 94 -46.5 164t-114.5 102.5t-144 32.5q-45 0 -84 -13z" />
    <glyph glyph-name="S" unicode="S" horiz-adv-x="1046" 
d="M932 1419l-21 -354h-67q-6 147 -86 221t-211 74q-97 0 -158 -56t-61 -139q0 -44 22 -85t59 -76t85 -69t101 -68.5t105.5 -71.5t100.5 -80.5t85 -91t59 -109t22 -129.5q0 -183 -124 -300.5t-354 -117.5q-62 0 -218 33t-210 33v377h68q4 -69 24 -126.5t59 -106.5t106.5 -77
t158.5 -28q120 0 188 64t68 171q0 60 -26.5 113t-70 92t-99.5 79.5t-114 75t-114 79t-99.5 91.5t-70 113t-26.5 142q0 167 128.5 268.5t336.5 101.5q66 0 176 -21.5t178 -21.5z" />
    <glyph glyph-name="T" unicode="T" horiz-adv-x="1302" 
d="M780 207q1 -65 24.5 -89.5t90.5 -33.5l63 -10v-74q-170 8 -315 8q-72 0 -147 -2t-114 -4l-40 -2v74l49 10q131 26 131 188v1055h-149q-107 0 -176.5 -43.5t-106.5 -146.5l-59 10l24 319h47q17 -32 84 -32h961q60 0 78 32h47l-23 -329l-59 10q0 180 -246 180h-164v-1120z
" />
    <glyph glyph-name="U" unicode="U" horiz-adv-x="1562" 
d="M256 479v731q0 76 -22.5 102.5t-92.5 37.5l-63 10v74q170 -9 315 -9q72 0 147 2.5t114 4.5l40 2v-74l-49 -10q-131 -26 -131 -189v-688q0 -186 88 -275t270 -89q178 0 265.5 89.5t87.5 274.5v737q0 73 -28 101t-101 39l-66 10v74q92 -9 256 -9q64 0 126.5 2.5t93.5 4.5
l30 2v-74l-49 -10q-129 -25 -129 -189v-682q0 -234 -134 -373t-405 -139q-282 0 -422.5 126.5t-140.5 385.5z" />
    <glyph glyph-name="V" unicode="V" horiz-adv-x="1501" 
d="M1010 1358v74q121 -7 258 -7q51 0 105.5 1.5t82.5 3.5l29 2v-74l-37 -8q-59 -13 -101.5 -64t-78.5 -147l-432 -1157l-115 -15l-496 1233q-27 65 -62.5 101t-99.5 49l-49 10v74q125 -9 287 -9q75 0 153 2.5t119 4.5l41 2v-74l-30 -10q-80 -26 -80 -111q0 -34 14 -74
l328 -860l299 846q24 70 24 117q0 70 -94 82z" />
    <glyph glyph-name="W" unicode="W" horiz-adv-x="2232" 
d="M1968 1425q56 0 108 2.5t76 4.5l25 2v-74l-27 -8q-111 -35 -159 -176l-402 -1194l-114 -15l-351 1041l-317 -1026l-115 -15l-440 1233q-22 62 -57.5 100t-104.5 50l-49 10v74q109 -9 285 -9q68 0 147.5 2.5t124.5 4.5l45 2v-74l-33 -10q-84 -26 -84 -95q0 -31 19 -90
l264 -813l252 832q8 28 8 59q0 51 -33 75t-94 32l-65 10v74q241 -9 413 -9q0 -100 35 -211l270 -862l269 824q14 44 14 75q0 86 -102 101l-54 8v74q109 -9 246 -9z" />
    <glyph glyph-name="X" unicode="X" horiz-adv-x="1460" 
d="M879 1360v74q184 -9 290 -9q50 0 117.5 2.5t109.5 4.5l42 2v-74l-49 -10q-87 -18 -144 -47.5t-106 -98.5l-293 -422l387 -532q56 -78 100 -114t117 -52l49 -10v-74q-156 10 -303 10q-57 0 -136 -2.5t-129 -5.5l-50 -2v74l49 10q59 15 59 72q0 27 -18 51l-271 385
l-268 -389q-18 -24 -18 -51q0 -55 71 -68l58 -10v-74q-142 8 -318 8q-65 0 -126 -2t-89 -4l-28 -2v74l63 10q173 27 250 137l332 473l-355 480q-22 31 -31.5 44t-33.5 40.5t-42 41.5t-44.5 29t-54.5 21l-48 10v74q146 -11 304 -11q58 0 136.5 2.5t127.5 5.5l49 3v-74
l-47 -10q-31 -6 -49.5 -25t-18.5 -47q0 -35 33 -82l217 -311l225 340q21 35 21 59q0 51 -84 66z" />
    <glyph glyph-name="Y" unicode="Y" horiz-adv-x="1503" 
d="M1200 1157l-315 -551v-383q0 -76 22 -102t92 -37l64 -10v-74q-170 8 -315 8q-72 0 -147.5 -2t-114.5 -4l-40 -2v74l50 10q131 26 131 188v320l-330 588q-83 143 -217 170l-47 10v74q114 -11 278 -11q83 0 162.5 2.5t117.5 5.5l38 3v-74l-33 -10q-55 -18 -55 -70
q0 -23 12 -47l278 -508l271 481q26 48 26 84q0 43 -61 60l-35 10v74q115 -9 242 -9q47 0 95 2.5t73 4.5l24 2v-74l-41 -10q-67 -16 -120 -59.5t-105 -133.5z" />
    <glyph glyph-name="Z" unicode="Z" horiz-adv-x="1353" 
d="M332 1434h907l27 -50l-875 -1280l350 5q108 1 192.5 25.5t147.5 72.5t109 110.5t86 149.5l59 -14l-114 -453h-1133l-20 37l874 1286l-362 -6q-155 -3 -249.5 -73.5t-125.5 -199.5l-60 11l56 411h47q1 -4 4.5 -9t24.5 -14t55 -9z" />
    <glyph glyph-name="bracketleft" unicode="[" horiz-adv-x="765" 
d="M438 -246q38 0 72 -6t64.5 -19t48.5 -37t18 -57q0 -25 -16 -44.5t-35 -24.5q-128 104 -465 104v1704q334 0 465 107q19 -5 35 -25t16 -45q0 -33 -18 -57t-48.5 -37t-64.5 -19t-72 -6q-31 0 -65 2t-52 4l-18 2v-1554q65 8 135 8z" />
    <glyph glyph-name="backslash" unicode="\" horiz-adv-x="841" 
d="M502 489q60 -195 140 -438t130 -389l49 -145h-196q-148 533 -283 972q-71 230 -152 473.5t-126 371.5l-46 128h197q127 -456 287 -973z" />
    <glyph glyph-name="bracketright" unicode="]" horiz-adv-x="765" 
d="M328 -246q31 0 65 -2t52 -4l18 -2v1554q-65 -8 -135 -8q-38 0 -72 6t-64.5 19t-48.5 37t-18 57q0 25 16 45t35 25q131 -107 465 -107v-1704q-337 0 -465 -104q-19 5 -35 24.5t-16 44.5q0 33 18 57t48.5 37t64.5 19t72 6z" />
    <glyph glyph-name="asciicircum" unicode="^" 
d="M647 1411l395 -805h-178l-295 611l-293 -611h-180l396 805h155z" />
    <glyph glyph-name="underscore" unicode="_" horiz-adv-x="1155" 
d="M61 -121h1033v-164h-1033v164z" />
    <glyph glyph-name="grave" unicode="`" horiz-adv-x="555" 
d="M63 1356q0 31 19.5 52.5t52.5 25.5l354 -347l-12 -43q-44 11 -111 42t-136 73.5t-118 96t-49 100.5z" />
    <glyph glyph-name="a" unicode="a" horiz-adv-x="1044" 
d="M604 651q0 106 -36 150.5t-122 44.5q-57 0 -89.5 -27.5t-32.5 -64.5q0 -38 22 -66q-40 -37 -106 -37q-52 0 -89.5 25.5t-37.5 68.5q0 64 59.5 112.5t150 72.5t193.5 24q145 0 239.5 -81t94.5 -232q0 -59 -8 -197t-8 -196q0 -64 28 -106t80 -42q24 0 44 4t28 8l8 3l27 -45
q-3 -4 -9.5 -11t-28.5 -25t-46 -31.5t-62.5 -24.5t-79.5 -11q-72 0 -121.5 29t-74.5 72q-26 0 -57.5 -16t-59 -34.5t-79.5 -34.5t-114 -16q-112 0 -181.5 55.5t-69.5 155.5q0 151 137.5 229t394.5 78q6 100 6 166zM307 213q0 -57 34 -89t99 -32q30 0 82 17.5t82 21.5
q-14 43 -14 123q0 33 2 71.5t4 60.5l2 22q-76 0 -140 -19.5t-107.5 -65t-43.5 -110.5z" />
    <glyph glyph-name="b" unicode="b" horiz-adv-x="1181" 
d="M594 803q-38 0 -96.5 -25.5t-77.5 -27.5v-502q0 -182 182 -182q75 0 135.5 54.5t92.5 140t32 181.5q0 161 -67.5 261t-200.5 100zM174 289v971q0 59 -31.5 84.5t-101.5 25.5l-16 64q88 8 186.5 33.5t153.5 46.5l55 22v-702q24 6 57.5 26.5t63 40.5t80.5 36.5t110 16.5
q110 0 202 -62.5t144.5 -169.5t52.5 -233q0 -121 -43.5 -220.5t-118.5 -165t-174.5 -101t-211.5 -35.5q-187 0 -303 58l-105 -84l-45 24q24 65 34.5 135t10.5 189z" />
    <glyph glyph-name="c" unicode="c" horiz-adv-x="974" 
d="M715 696q12 25 12 54q0 44 -41 76t-139 32q-73 0 -125 -53t-76 -137t-24 -189q0 -192 81 -277t240 -85q123 0 219 35l27 -52q-84 -69 -168.5 -101t-222.5 -32q-209 0 -328 122t-119 343q0 160 76 280.5t200 181t275 60.5q47 0 100 -9.5t106 -29t87.5 -55.5t34.5 -82
q0 -51 -42.5 -76.5t-99.5 -25.5q-45 0 -73 20z" />
    <glyph glyph-name="d" unicode="d" horiz-adv-x="1193" 
d="M1010 1536v-1294q0 -58 32 -84.5t101 -26.5l16 -61q-88 -9 -184.5 -34.5t-149.5 -47.5l-53 -21l-8 121q-24 -6 -57.5 -26.5t-63.5 -41t-81.5 -37t-110.5 -16.5q-168 0 -284 136t-116 329q0 143 64 260.5t191 189.5t296 72q91 0 162 -14v320q0 59 -31.5 84.5t-101.5 25.5
l-17 64q88 8 187 33.5t154 46.5zM588 119q39 0 98.5 25.5t77.5 27.5v500q0 92 -51.5 139t-139.5 47q-113 0 -182 -107t-69 -272q0 -161 67 -260.5t199 -99.5z" />
    <glyph glyph-name="e" unicode="e" horiz-adv-x="972" 
d="M309 631l383 18q2 14 2 37q0 28 -5 53.5t-18.5 56.5t-45 49.5t-78.5 18.5q-90 0 -156.5 -64t-81.5 -169zM932 600l-47 -47h-586q-4 -37 -4 -74q0 -71 19.5 -133t60 -113.5t110.5 -81.5t162 -30q124 0 232 33l28 -54q-157 -133 -403 -133q-199 0 -326 127t-127 338
q0 150 72 270.5t193 186t266 65.5q175 0 262.5 -96.5t87.5 -257.5z" />
    <glyph glyph-name="f" unicode="f" horiz-adv-x="776" 
d="M449 797v-613q0 -56 22 -78.5t72 -27.5l102 -10v-68q-192 6 -323 6l-277 -6v68l37 6q55 9 89 42t34 85v608h-148l-10 61q10 2 27.5 6t59.5 23t71 45v70q0 123 40.5 223.5t109 165t156.5 99t187 34.5q65 0 124 -17t102 -57.5t43 -97.5q0 -58 -49 -88.5t-115 -30.5
q-59 0 -107 25q39 31 39 80q0 82 -98 82q-55 0 -92.5 -25t-58 -74.5t-29 -111t-8.5 -146.5v-153h313v-125h-313z" />
    <glyph glyph-name="g" unicode="g" horiz-adv-x="1083" 
d="M449 874q-170 0 -170 -251q0 -100 57.5 -188.5t144.5 -88.5q168 0 168 254q0 63 -24 125t-71 105.5t-105 43.5zM465 270q-25 -3 -50.5 -9.5t-51.5 -18t-42 -31.5t-16 -45q0 -41 53.5 -62t196.5 -22q231 -1 337.5 -65t106.5 -195q0 -68 -34.5 -129t-101.5 -109.5t-176 -77
t-247 -28.5q-76 0 -148.5 14.5t-136 43t-102.5 78t-39 112.5q0 67 44 106t102 39q74 0 96 -45q-55 -24 -55 -96q0 -74 87 -118t220 -44q156 0 236.5 55.5t80.5 134.5q0 34 -13 60t-46 48.5t-96 34.5t-156 13q-201 2 -308.5 43t-107.5 133q0 141 217 195q-124 29 -195 112
t-71 195q0 155 116.5 258.5t323.5 103.5q145 0 230 -57q78 -16 143 -16q112 0 207 45q18 -30 18 -66q0 -44 -32 -76t-88 -32q-35 0 -79.5 21t-58.5 24q50 -73 50 -168q0 -152 -114.5 -246t-299.5 -113z" />
    <glyph glyph-name="h" unicode="h" horiz-adv-x="1253" 
d="M1079 682v-498q0 -56 16 -78t54 -28l63 -10v-68q-129 6 -260 6q-62 0 -123 -1.5t-91 -2.5l-31 -2v68l26 6q48 9 74.5 42t26.5 85v444q0 75 -38.5 114.5t-113.5 39.5q-43 0 -116.5 -37t-96.5 -39v-539q0 -56 16 -78t54 -28l63 -10v-68q-129 6 -260 6l-268 -6v68l43 6
q50 8 79 41t29 86v1059q0 59 -32 84.5t-101 25.5l-18 64q88 8 187 33.5t153 46.5l55 22v-733q26 4 64.5 29t74 51.5t91.5 48.5t114 22q128 0 197 -74t69 -198z" />
    <glyph glyph-name="i" unicode="i" horiz-adv-x="675" 
d="M180 1341q0 60 43 101t107 41q62 0 104.5 -41t42.5 -101q0 -61 -42.5 -103t-104.5 -42q-64 0 -107 41.5t-43 103.5zM471 952v-768q0 -56 15.5 -78t54.5 -28l61 -10v-68q-127 6 -260 6l-266 -6v68l41 6q51 8 79.5 40.5t28.5 86.5v475q0 60 -31.5 86t-101.5 26l-16 62
q88 8 186.5 33.5t153.5 46.5z" />
    <glyph glyph-name="j" unicode="j" horiz-adv-x="655" 
d="M162 1341q0 60 43.5 101t107.5 41q62 0 105 -41t43 -101q0 -61 -43 -103t-105 -42q-64 0 -107.5 41.5t-43.5 103.5zM207 39v637q0 59 -32.5 85.5t-100.5 26.5l-19 62q88 8 187 33.5t154 46.5l55 22v-811q0 -152 -31.5 -250t-106.5 -174q-42 -42 -103.5 -70.5
t-125.5 -53.5t-102 -54l-41 55q24 22 91.5 70t102.5 94q72 95 72 281z" />
    <glyph glyph-name="k" unicode="k" horiz-adv-x="1230" 
d="M469 1536v-985h80l123 174q22 33 22 57q0 56 -69 66l-43 6v68q104 -7 282 -7q88 0 158.5 1.5t96.5 3.5l26 2v-66l-72 -8q-198 -20 -285 -131l-112 -144l219 -286q99 -130 177 -174.5t181 -44.5v-50q-88 -32 -192 -32q-131 0 -213 53.5t-148 163.5l-139 227
q-16 26 -36.5 38.5t-55.5 12.5v-297q0 -56 16 -78t54 -28l63 -10v-68q-129 6 -260 6l-268 -6v68l43 6q50 8 79 41t29 86v1059q0 59 -32 84.5t-101 25.5l-18 64q88 8 187 33.5t153 46.5z" />
    <glyph glyph-name="l" unicode="l" horiz-adv-x="643" 
d="M469 1536v-1352q0 -56 16 -78t54 -28l63 -10v-68q-129 6 -260 6l-268 -6v68l43 6q50 8 79 41t29 86v1059q0 59 -32 84.5t-101 25.5l-18 64q88 8 187 33.5t153 46.5z" />
    <glyph glyph-name="m" unicode="m" horiz-adv-x="1765" 
d="M1020 682v-498q0 -51 14 -75t49 -31l47 -10v-68q-106 6 -237 6q-62 0 -120.5 -1.5t-86.5 -2.5l-27 -2v68l25 6q90 23 90 127v444q0 74 -34 114t-101 40q-45 0 -106 -35.5t-84 -40.5v-539q0 -51 14 -75t49 -31l47 -10v-68q-106 6 -237 6l-269 -6v68l43 6q50 8 79.5 41
t29.5 86v475q0 59 -32.5 85.5t-100.5 26.5l-19 62q88 8 187 33.5t154 46.5l55 22v-149q21 8 56.5 34.5t68 51.5t81.5 45t99 20q178 0 241 -145q27 9 66.5 34.5t73 49t85 42.5t105.5 19q127 0 196.5 -74t69.5 -198v-498q0 -56 16 -78t54 -28l63 -10v-68q-129 6 -262 6
q-61 0 -118.5 -1.5t-85.5 -2.5l-27 -2v68l24 6q91 22 91 127v444q0 73 -41 113.5t-107 40.5q-41 0 -101 -29.5t-81 -34.5q4 -18 4 -53z" />
    <glyph glyph-name="n" unicode="n" horiz-adv-x="1232" 
d="M1059 682v-498q0 -56 16 -78t53 -28l64 -10v-68q-129 6 -260 6q-62 0 -123.5 -1.5t-92.5 -2.5l-30 -2v68l27 6q48 9 74 42t26 85v444q0 154 -151 154q-43 0 -116.5 -37t-96.5 -39v-539q0 -56 16 -78t53 -28l64 -10v-68q-129 6 -260 6l-269 -6v68l43 6q50 8 79.5 41
t29.5 86v475q0 59 -32.5 85.5t-100.5 26.5l-19 62q88 8 187 33.5t154 46.5l55 22v-149q26 4 64.5 29t74 51.5t91.5 48.5t114 22q128 0 197 -74t69 -198z" />
    <glyph glyph-name="o" unicode="o" 
d="M547 858q-56 0 -100.5 -32.5t-71 -87t-40 -120.5t-13.5 -139q0 -101 33 -195.5t96 -157.5t141 -63q57 0 101.5 32t71.5 86.5t40.5 121t13.5 139.5q0 101 -33 195.5t-96.5 157.5t-142.5 63zM539 -33q-215 0 -351.5 130.5t-136.5 334.5q0 143 64 260.5t191 189.5t296 72
q215 0 350 -130t135 -335q0 -106 -37.5 -201t-106 -166.5t-173.5 -113t-231 -41.5z" />
    <glyph glyph-name="p" unicode="p" horiz-adv-x="1232" 
d="M645 803q-31 0 -92.5 -25t-83.5 -28v-502q0 -91 52.5 -138t140.5 -47q113 0 182 107t69 272q0 161 -68 261t-200 100zM225 -311v987q0 59 -32.5 85.5t-100.5 26.5l-18 62q88 8 187 33.5t153 46.5l55 22v-118q25 6 58.5 26.5t63.5 40.5t81 36.5t110 16.5q168 0 284 -136
t116 -329q0 -143 -64 -260.5t-190.5 -189.5t-294.5 -72q-85 0 -164 15v-320q0 -48 23.5 -68.5t64.5 -27.5l64 -10v-68h-547v68l43 6q50 8 79 41.5t29 85.5z" />
    <glyph glyph-name="q" unicode="q" horiz-adv-x="1214" 
d="M1010 553v-891q0 -48 23 -68.5t63 -27.5l63 -10v-68h-545v68l41 6q51 8 80 41.5t29 85.5v399q-24 -6 -57.5 -26.5t-63.5 -41t-81.5 -37t-110.5 -16.5q-168 0 -284 136t-116 329q0 143 64 260.5t191 189.5t296 72q166 0 301 -53l111 80l51 -14q-55 -145 -55 -414zM588 119
q39 0 98.5 25.5t77.5 27.5v500q0 92 -51.5 139t-139.5 47q-113 0 -182 -107t-69 -272q0 -161 67 -260.5t199 -99.5z" />
    <glyph glyph-name="r" unicode="r" horiz-adv-x="901" 
d="M451 952v-151q21 4 54 29.5t63 52.5t78 49t97 22q71 0 116.5 -39t45.5 -96q0 -70 -41 -105.5t-98 -35.5q-54 0 -88 24q12 24 12 48q0 25 -15 41t-46 16q-37 -1 -97 -41t-81 -43v-539q0 -56 22 -78.5t70 -27.5l102 -10v-68q-139 6 -323 6q-69 0 -138 -1.5t-103 -2.5
l-34 -2v68l37 6q54 9 87.5 42t33.5 85v475q0 60 -31.5 86t-101.5 26l-17 62q88 8 187 33.5t154 46.5z" />
    <glyph glyph-name="s" unicode="s" horiz-adv-x="831" 
d="M473 954q80 0 155 -18t124 -18l-15 -267h-69q0 92 -51.5 149.5t-147.5 57.5q-66 0 -103.5 -33.5t-37.5 -87.5q0 -38 24.5 -69.5t63.5 -55t86 -46.5t94 -51.5t86 -63t63.5 -88t24.5 -119.5q0 -142 -108 -209.5t-291 -67.5q-48 0 -140.5 21.5t-142.5 21.5l-10 285h72
q6 -114 70 -173t165 -59q79 0 126.5 36.5t47.5 90.5q0 49 -24 86.5t-62.5 62.5t-85 47.5t-93 48t-85 56.5t-62.5 81t-24 114q0 119 95 193.5t255 74.5z" />
    <glyph glyph-name="t" unicode="t" horiz-adv-x="776" 
d="M553 111q50 0 96.5 6t68.5 12l21 6l9 -61q-72 -51 -147.5 -79t-188.5 -28q-110 0 -175 66t-65 188v588h-133l-8 61q11 3 30 9.5t66.5 31.5t83.5 56q42 36 77.5 79t50.5 68l15 25l64 -19v-198h291v-125h-291v-557q0 -129 135 -129z" />
    <glyph glyph-name="u" unicode="u" horiz-adv-x="1198" 
d="M1024 922v-680q0 -58 32 -84.5t101 -26.5l17 -61q-88 -9 -183.5 -34.5t-147.5 -47.5l-52 -21l-11 150q-26 -6 -64.5 -31t-73.5 -51t-90 -47t-112 -21q-128 0 -197 74t-69 199v485q0 59 -29.5 87t-101.5 28v67l358 33l19 -18v-646q0 -153 162 -153q37 0 75 16.5t71 36
t52 23.5v512q0 64 -28 96.5t-105 32.5v67l361 33z" />
    <glyph glyph-name="v" unicode="v" horiz-adv-x="1056" 
d="M270 913q59 0 119.5 2.5t91.5 4.5l31 2v-68l-41 -10q-35 -9 -52.5 -21.5t-17.5 -36.5q0 -2 11 -41l155 -471l181 433q24 63 24 86q0 38 -59 51l-43 10v68q102 -7 190 -7l184 7v-68l-43 -10q-53 -11 -85 -47t-62 -105l-309 -725h-90l-295 762q-23 58 -46 82.5t-59 32.5
l-43 10v68q127 -9 258 -9z" />
    <glyph glyph-name="w" unicode="w" horiz-adv-x="1619" 
d="M1407 692l-299 -725h-86l-221 598l-256 -598h-90l-295 762q-23 58 -46 82.5t-59 32.5l-43 10v68q127 -9 258 -9q59 0 119.5 2.5t91.5 4.5l31 2v-68l-41 -10q-35 -9 -52.5 -21.5t-17.5 -36.5q0 -2 11 -41l155 -471l181 433q24 63 24 86q0 38 -59 51l-43 10v68
q110 -7 258 -7l202 -632l183 442q16 42 16 68q0 38 -59 51l-43 10v68q102 -7 192 -7l185 7v-68l-45 -10q-53 -12 -88 -48t-64 -104z" />
    <glyph glyph-name="x" unicode="x" horiz-adv-x="1099" 
d="M717 844l-35 10v68q99 -7 195 -7q45 0 95.5 1.5t78.5 3.5l28 2v-66l-53 -12q-56 -12 -102.5 -41t-98.5 -86l-170 -189l256 -360q51 -74 170 -94l35 -6v-68q-108 6 -276 6q-69 0 -136.5 -1.5t-99.5 -2.5l-33 -2v68l31 6q62 12 62 53q0 29 -21 63l-125 183l-166 -191
q-30 -35 -30 -65q0 -37 43 -43l34 -6v-68q-113 6 -219 6q-56 0 -102 -1.5t-64 -2.5l-18 -2v68l37 6q56 9 105.5 40t105.5 95l213 242l-211 297q-28 40 -61.5 63t-86.5 33l-51 10v68q100 -7 266 -7q70 0 133 1.5t91 3.5l28 2v-68l-33 -10q-34 -9 -34 -43q0 -27 22 -66
l82 -121l109 123q37 43 37 68q0 29 -31 39z" />
    <glyph glyph-name="y" unicode="y" horiz-adv-x="1077" 
d="M406 -117l49 115l-285 731q-23 58 -45.5 82.5t-58.5 32.5l-43 10v68q127 -9 258 -9q59 0 119.5 2.5t91.5 4.5l30 2v-68l-41 -10q-35 -8 -52 -21t-17 -37q0 -6 10 -41l156 -471l180 433q24 63 24 86q0 38 -59 51l-43 10v68q102 -7 190 -7l185 7v-68l-43 -10
q-53 -11 -85.5 -47t-62.5 -105l-354 -835q-21 -50 -46 -93t-60.5 -84.5t-76.5 -70.5t-94.5 -46.5t-113.5 -17.5q-99 0 -147 40t-48 104q0 41 34 74.5t103 33.5q25 0 39 -2q-4 -20 -4 -31q0 -71 86 -71q150 0 224 190z" />
    <glyph glyph-name="z" unicode="z" horiz-adv-x="952" 
d="M41 35l569 799l-231 -9q-94 -3 -155.5 -44.5t-94.5 -141.5l-57 4l51 303h55q1 -3 5 -8.5t24.5 -14t50.5 -8.5l625 7l14 -37q-49 -62 -196 -260t-269 -365l-123 -168l234 10q71 3 125 18.5t87.5 42.5t53.5 57t33 69l14 41l55 -11l-53 -319h-801z" />
    <glyph glyph-name="braceleft" unicode="{" horiz-adv-x="737" 
d="M135 506h-55v78h55q158 0 158 186q0 70 -31 209.5t-31 216.5q0 80 27.5 141.5t71.5 95t92.5 50t97.5 16.5q68 0 101.5 -25t33.5 -57q0 -24 -18 -42t-45 -23q-6 21 -27 35t-49 14q-46 0 -79.5 -36.5t-33.5 -107.5q0 -90 14.5 -234t14.5 -228q0 -103 -53 -169t-123 -81
q70 -15 123 -81t53 -169q0 -84 -14.5 -228.5t-14.5 -234.5q0 -71 33.5 -107t79.5 -36q28 0 49 14t27 35q27 -5 45 -23.5t18 -42.5q0 -32 -33.5 -57t-101.5 -25q-49 0 -97.5 16.5t-92.5 50.5t-71.5 95.5t-27.5 141.5q0 77 31 216t31 209q0 187 -158 187z" />
    <glyph glyph-name="bar" unicode="|" horiz-adv-x="452" 
d="M145 508l-12 1057h184q-12 -854 -12 -1057l12 -1057h-184q12 860 12 1057z" />
    <glyph glyph-name="braceright" unicode="}" horiz-adv-x="737" 
d="M657 506h-55q-158 0 -158 -187q0 -70 31 -209t31 -216q0 -80 -27.5 -141.5t-71.5 -95.5t-92.5 -50.5t-97.5 -16.5q-68 0 -101.5 25t-33.5 57q0 24 18 42.5t45 23.5q6 -21 27 -35t49 -14q46 0 79.5 36t33.5 107q0 90 -14.5 234.5t-14.5 228.5q0 103 53 169t123 81
q-70 15 -123 81t-53 169q0 84 14.5 228t14.5 234q0 71 -33.5 107.5t-79.5 36.5q-28 0 -49 -14t-27 -35q-27 5 -45 23t-18 42q0 32 33.5 57t101.5 25q49 0 97.5 -16.5t92.5 -50t71.5 -95t27.5 -141.5q0 -77 -31 -216.5t-31 -209.5q0 -186 158 -186h55v-78z" />
    <glyph glyph-name="asciitilde" unicode="~" horiz-adv-x="1136" 
d="M373 645q60 0 119 -21t100 -46.5t95.5 -46.5t105.5 -21q132 0 194 129l64 -45q-12 -113 -93.5 -186.5t-207.5 -73.5q-56 0 -113 21t-96.5 46.5t-93 46.5t-103.5 21q-137 0 -197 -129l-63 45q14 108 94.5 184t194.5 76z" />
    <glyph glyph-name="nbspace" unicode="&#xa0;" horiz-adv-x="567" 
d="M0 2v-2v2z" />
    <glyph glyph-name="exclamdown" unicode="&#xa1;" horiz-adv-x="565" 
d="M135 881q0 62 42.5 104.5t105.5 42.5q61 0 104 -43t43 -104q0 -62 -43 -105t-104 -43q-63 0 -105.5 43t-42.5 105zM238 610h90q-4 -35 -4 -94q0 -127 28.5 -273t57 -287t28.5 -255q0 -76 -45 -122t-110 -46t-110.5 46t-45.5 122q0 92 18 201.5t39.5 196t39.5 201.5
t18 216z" />
    <glyph glyph-name="cent" unicode="&#xa2;" horiz-adv-x="974" 
d="M715 696q12 25 12 54q0 44 -41 76t-139 32q-73 0 -125 -53t-76 -137t-24 -189q0 -192 81 -277t240 -85q123 0 219 35l27 -52q-68 -54 -129 -84t-144 -41l5 -311h-127q4 141 4 303q-209 0 -328 122t-119 343q0 211 126 347.5t321 166.5l-4 338h127q-5 -154 -5 -330
q47 -2 98 -12.5t101.5 -30t82.5 -54.5t32 -79q0 -51 -42.5 -76.5t-99.5 -25.5q-45 0 -73 20z" />
    <glyph glyph-name="sterling" unicode="&#xa3;" horiz-adv-x="960" 
d="M672 954q115 0 178 -36.5t63 -108.5q0 -53 -44.5 -89t-106.5 -36q-49 0 -84 18q39 46 39 101q0 31 -19.5 50t-60.5 19q-85 0 -130.5 -62t-45.5 -165v-168h293v-80h-293l-4 -75q-6 -89 -44 -143.5t-126 -98.5l4 -8q71 32 155 32q49 0 138 -19t133 -19q58 0 101.5 27.5
t55.5 74.5l41 -23q0 -28 -4 -55t-19 -62t-39 -60.5t-69.5 -43.5t-105.5 -18q-83 0 -222 32.5t-208 32.5q-87 0 -185 -45l-22 47q21 13 30 19.5t30.5 24.5t33 33.5t28.5 43.5t26 58t15.5 73t6.5 92v80h-166v52q98 8 170 26v84q0 101 36.5 178.5t100.5 124t144.5 69.5
t175.5 23z" />
    <glyph glyph-name="yen" unicode="&#xa5;" horiz-adv-x="1122" 
d="M911 918l170 4v-68l-30 -4q-70 -11 -109 -76l-215 -356l322 4v-109q-207 2 -340 4v-151q0 -46 18 -68.5t61 -25.5l50 -4v-68q-82 6 -258 6q-68 0 -129.5 -1.5t-88.5 -2.5l-28 -2v68l43 6q86 12 86 168v75l-334 -4v109q184 -2 317 -4l-258 373q-29 47 -94 57l-47 6v68
q82 -7 195 -7l237 7v-68l-24 -6q-33 -10 -33 -43q0 -22 12 -43l207 -322l199 332q14 32 14 41q0 34 -53 37l-41 4v68q69 -4 151 -4z" />
    <glyph glyph-name="brokenbar" unicode="&#xa6;" horiz-adv-x="450" 
d="M133 1565h184q-8 -556 -12 -877h-162zM317 -549h-184q8 556 12 877h162z" />
    <glyph glyph-name="section" unicode="&#xa7;" horiz-adv-x="1179" 
d="M270 981q0 -77 31.5 -154.5t82 -144t111.5 -133t122 -132t111.5 -130.5t82 -140t31.5 -149q0 -89 -47 -156q57 51 84.5 123.5t27.5 138.5q0 82 -31.5 161.5t-82 146t-111 132t-121.5 129.5t-111.5 127.5t-82 137.5t-31.5 149q0 89 47 156q-57 -51 -85 -123.5t-28 -138.5z
M696 -61q0 58 -33 122t-85 124t-115.5 124.5t-127 134t-115.5 141.5t-85 158t-33 172q0 163 86.5 289t229.5 192t317 66q130 0 199.5 -52t69.5 -122q0 -60 -37.5 -90.5t-87.5 -30.5q-52 0 -101 29q17 23 17 49q0 35 -28 60.5t-89 25.5q-81 0 -139 -49.5t-58 -134.5
q0 -53 33 -111.5t85 -115t115.5 -117.5t127 -131t115.5 -144t85 -167t33 -191q0 -163 -86.5 -289t-229.5 -192t-317 -66q-134 0 -201 51.5t-67 122.5q0 60 37.5 90.5t87.5 30.5q51 0 100 -29q-16 -21 -16 -49q0 -35 28 -60.5t89 -25.5q81 0 138.5 50t57.5 135z" />
    <glyph glyph-name="dieresis" unicode="&#xa8;" horiz-adv-x="681" 
d="M20 1188q0 55 35.5 91t89.5 36q55 0 91 -35.5t36 -91.5q0 -54 -36 -89.5t-91 -35.5q-54 0 -89.5 35.5t-35.5 89.5zM410 1188q0 55 35.5 91t89.5 36q55 0 91 -35.5t36 -91.5q0 -54 -36 -89.5t-91 -35.5q-54 0 -89.5 35.5t-35.5 89.5z" />
    <glyph glyph-name="copyright" unicode="&#xa9;" horiz-adv-x="1638" 
d="M1133 1098v-221h-56q-11 82 -75 137t-175 55q-114 0 -195 -97t-81 -241q0 -180 83.5 -271t225.5 -91q92 0 156 64t84 163l55 -2l-31 -270q-45 0 -139.5 -21.5t-159.5 -21.5q-92 0 -170 24t-140 72t-97 129.5t-35 187.5q0 89 30.5 170.5t86.5 145t144 101.5t194 38
q64 0 151.5 -25.5t143.5 -25.5zM78 715q0 152 59 290t158.5 237.5t237.5 158.5t290 59t290 -59t238 -158.5t159 -237.5t59 -290q0 -203 -100 -374.5t-271.5 -271.5t-374.5 -100q-152 0 -290 59t-237.5 159t-158.5 238t-59 290zM201 715q0 -169 83.5 -313t227.5 -228t313 -84
t313 84t228 228t84 313t-84 313t-228 227.5t-313 83.5q-127 0 -242.5 -49.5t-199 -133t-133 -199t-49.5 -242.5z" />
    <glyph glyph-name="ordfeminine" unicode="&#xaa;" horiz-adv-x="737" 
d="M59 649q169 -6 308 -6l309 6v-102q-155 6 -309 6l-308 -6v102zM395 850q-6 32 -6 59l2 68q-76 0 -123 -27.5t-47 -75.5q0 -27 18 -43t48 -16q21 0 56 16t52 19zM246 1122q-27 -18 -66 -18q-35 0 -58.5 16.5t-23.5 48.5q0 50 70.5 93t181.5 43q91 0 144 -43t53 -132
q0 -29 -4 -111t-4 -134q0 -70 55 -70q12 0 26 3t22 6l7 3l15 -36q-2 -3 -6 -7t-18 -14.5t-29.5 -19t-40 -15t-50.5 -6.5q-51 0 -80.5 23.5t-36.5 52.5q-15 -4 -45.5 -23t-66.5 -35t-74 -16q-74 0 -110.5 32t-36.5 87q0 49 28.5 86t76.5 57.5t103 30.5t117 10q2 59 2 82
q0 111 -92 111q-40 0 -58 -18t-18 -42q0 -12 4.5 -23.5t8.5 -16.5z" />
    <glyph glyph-name="guillemotleft" unicode="&#xab;" horiz-adv-x="1032" 
d="M139 485l355 443l67 -123l-285 -316q46 -28 93 -66t94 -86t76.5 -103t29.5 -103t-25 -74t-61 -26zM500 485l323 402l64 -115l-258 -276q42 -26 83.5 -59.5t84.5 -77t69.5 -94.5t26.5 -97q0 -45 -23 -69.5t-57 -24.5z" />
    <glyph glyph-name="logicalnot" unicode="&#xac;" horiz-adv-x="933" 
d="M918 748v-613h-185v432h-719v181h904z" />
    <glyph glyph-name="registered" unicode="&#xae;" horiz-adv-x="700" 
d="M121 1176q0 -98 65.5 -167t163.5 -69q97 0 162.5 69t65.5 167q0 99 -65.5 168t-162.5 69q-99 0 -164 -69t-65 -168zM63 1176q0 120 83.5 203t203.5 83q119 0 203 -83t84 -203q0 -118 -84.5 -202.5t-202.5 -84.5q-124 0 -205.5 83.5t-81.5 203.5zM381 1176q15 -7 25 -27
l38 -80q14 -27 52 -27l16 2v-16q-23 -8 -43 -8q-68 0 -88 55l-31 76q-6 18 -22 18l-15 -4v-96q0 -24 23 -27l12 -2v-16q-38 2 -67 2l-66 -2v16l12 2q27 6 27 48v186q0 20 -5 28t-18 11l-16 4v16q32 -2 61 -2q14 0 35.5 1t30.5 1q46 0 75 -21.5t29 -56.5q0 -20 -6.5 -35.5
t-16 -23.5t-19.5 -13.5t-16 -6.5zM332 1309q-13 0 -19 -2v-119q9 6 23 6l20 -4q23 23 23 67q0 27 -13.5 39.5t-33.5 12.5z" />
    <glyph glyph-name="macron" unicode="&#xaf;" horiz-adv-x="684" 
d="M63 1206q146 -6 279 -6l279 6v-162q-129 7 -279 7l-279 -7v162z" />
    <glyph glyph-name="degree" unicode="&#xb0;" horiz-adv-x="645" 
d="M178 1182q0 -62 42 -105t104 -43q64 0 102.5 42.5t38.5 105.5q0 67 -39 111t-102 44q-65 0 -105.5 -44t-40.5 -111zM66 1184q0 110 74.5 185t183.5 75t183.5 -75t74.5 -185q0 -107 -74.5 -181.5t-183.5 -74.5t-183.5 74.5t-74.5 181.5z" />
    <glyph glyph-name="plusminus" unicode="&#xb1;" horiz-adv-x="933" 
d="M373 934h184v-258h361v-184h-361v-261h-184v261h-359v184h359v258zM14 0v184h904v-184h-904z" />
    <glyph glyph-name="twosuperior" unicode="&#xb2;" horiz-adv-x="776" 
d="M625 1591q0 -54 -17 -105t-44.5 -94.5t-79.5 -97t-102 -97.5t-132 -112h233q66 0 119 38.5t80 113.5l39 -16q-39 -156 -70 -279h-585l-11 55l258 291q57 63 92 137.5t35 143.5q0 68 -35 106.5t-90 38.5t-83.5 -28t-28.5 -70q0 -45 51 -57q-1 -34 -23.5 -54t-54.5 -20
q-40 0 -70 30t-30 87q0 98 76.5 167.5t199.5 69.5q121 0 197 -69t76 -179z" />
    <glyph glyph-name="threesuperior" unicode="&#xb3;" horiz-adv-x="776" 
d="M479 1620q0 48 -34 81.5t-97 33.5q-60 0 -91.5 -25t-31.5 -59q0 -19 13 -34t36 -18q-9 -30 -33 -46.5t-53 -16.5q-39 0 -66.5 26t-27.5 78q0 78 81 138.5t212 60.5q109 0 180.5 -58.5t71.5 -144.5q0 -72 -48.5 -130t-117.5 -79v-8q88 -5 147.5 -58.5t59.5 -137.5
q0 -73 -35 -131t-94 -93.5t-132 -54t-153 -18.5q-78 0 -151 16v68q46 -9 82 -9q75 0 141.5 20.5t114 69t47.5 117.5q0 152 -199 152l-76 -2l-16 59q11 1 29 4t64.5 17t82.5 34t65 59.5t29 88.5z" />
    <glyph glyph-name="acute" unicode="&#xb4;" horiz-adv-x="555" 
d="M489 1356q0 -47 -48.5 -100.5t-117.5 -96t-136 -73.5t-111 -42l-13 43l355 347q33 -4 52 -25.5t19 -52.5z" />
    <glyph glyph-name="mu" unicode="&#xb5;" horiz-adv-x="1198" 
d="M1024 922v-680q0 -58 32 -84.5t101 -26.5l17 -61q-88 -9 -183.5 -34.5t-147.5 -47.5l-52 -21l-11 150q-26 -6 -64.5 -31t-73.5 -51t-90 -47t-112 -21q-84 0 -139 41q-2 -45 -2 -147q0 -202 76 -256q-5 -36 -33.5 -60t-73.5 -24q-56 0 -90.5 40.5t-34.5 119.5
q0 57 15.5 247.5t15.5 311.5v485q0 59 -29.5 87t-101.5 28v67l358 33l19 -18v-646q0 -153 162 -153q37 0 75 16.5t71 36t52 23.5v512q0 64 -28 96.5t-105 32.5v67l361 33z" />
    <glyph glyph-name="paragraph" unicode="&#xb6;" horiz-adv-x="1267" 
d="M840 270v1080h-101v-1129q0 -183 -28 -288.5t-99 -176.5q112 44 170 177.5t58 336.5zM1012 1161v-815q0 -148 -32.5 -270t-89.5 -205.5t-135 -140.5t-168 -83t-190 -26q-75 0 -143.5 25t-116 79t-47.5 125q0 54 38 86.5t93 32.5q59 0 94 -30q-41 -38 -41 -99q0 -34 9 -62
t38 -50.5t76 -22.5q53 0 93.5 27t64 71t38.5 108t20 127.5t5 141.5v404q-28 -2 -77 -2q-82 0 -151 12.5t-131.5 43.5t-105.5 78.5t-68.5 121t-25.5 168.5q0 428 504 428q90 0 185.5 -3.5t142.5 -3.5q72 0 147 1.5t114 3.5l40 2v-74l-49 -10q-131 -26 -131 -189z" />
    <glyph glyph-name="periodcentered" unicode="&#xb7;" horiz-adv-x="423" 
d="M66 596q0 62 42 104.5t105 42.5q61 0 104 -42.5t43 -104.5t-43 -104.5t-104 -42.5q-63 0 -105 42.5t-42 104.5z" />
    <glyph glyph-name="cedilla" unicode="&#xb8;" horiz-adv-x="649" 
d="M346 0h72q-6 -3 -15 -8.5t-23.5 -25.5t-14.5 -44q0 -23 16.5 -43.5t39.5 -36.5t46.5 -34.5t40 -47.5t16.5 -65q0 -69 -75.5 -115.5t-169.5 -46.5q-74 0 -121 30t-47 81q0 36 25.5 59t62.5 23q27 0 47 -13q-21 -21 -21 -51q0 -55 76 -55q41 0 63.5 16t22.5 43q0 19 -22 39
t-48.5 37t-48.5 50.5t-22 76.5q0 41 25 73.5t50 45.5z" />
    <glyph glyph-name="onesuperior" unicode="&#xb9;" horiz-adv-x="778" 
d="M629 1001v-59q-100 6 -219 6q-62 0 -113.5 -1.5t-72.5 -2.5l-21 -2v57l49 13q50 12 70 45.5t20 95.5v428q0 61 -55 61q-12 0 -123 -18l-14 62q159 26 299 133h53v-713q0 -52 15.5 -73.5t49.5 -24.5z" />
    <glyph glyph-name="ordmasculine" unicode="&#xba;" horiz-adv-x="737" 
d="M356 1225q-63 0 -94 -52.5t-31 -144.5q0 -104 43.5 -160.5t110.5 -56.5q58 0 89.5 50.5t31.5 148.5q0 89 -38.5 152t-111.5 63zM70 1006q0 121 89 210t230 89q119 0 199 -80t80 -191q0 -55 -19.5 -107.5t-57.5 -97t-100.5 -71.5t-140.5 -27q-113 0 -196.5 75.5
t-83.5 199.5zM59 649q169 -6 308 -6l309 6v-102q-155 6 -309 6l-308 -6v102z" />
    <glyph glyph-name="guillemotright" unicode="&#xbb;" horiz-adv-x="1032" 
d="M893 473l-354 -442l-68 123l285 315q-46 28 -93 66t-94 86t-76.5 103t-29.5 103t25 74.5t61 26.5zM532 473l-323 -401l-64 114l258 277q-42 26 -83.5 59.5t-84.5 77t-69.5 94.5t-26.5 97q0 45 23 69.5t57 24.5z" />
    <glyph glyph-name="onequarter" unicode="&#xbc;" horiz-adv-x="1736" 
d="M1198 1464h154q-299 -492 -471 -786q-71 -121 -171.5 -298.5t-165.5 -295.5l-65 -117h-153q295 480 467 778q70 121 171.5 300.5t167.5 298.5zM1640 225h-170v-82q0 -38 15 -55t47 -20l65 -7v-61q-128 6 -206 6l-224 -6v59l52 13q90 22 90 129v24h-391l-25 45l266 424
q43 66 43 125q0 48 -39 74q30 43 86 43q44 0 72.5 -29t28.5 -78q0 -48 -30.5 -101.5t-90.5 -129.5l-203 -260h283v256l161 68v-324h170v-113zM575 602v-59q-100 6 -219 6q-62 0 -113.5 -1.5t-72.5 -3.5l-20 -1v57l49 12q49 12 69.5 46t20.5 96v428q0 61 -56 61
q-11 0 -122 -18l-15 61q159 26 299 133h54v-712q0 -52 15.5 -74t49.5 -25z" />
    <glyph glyph-name="onehalf" unicode="&#xbd;" horiz-adv-x="1736" 
d="M1176 1464h153q-299 -492 -471 -786q-71 -121 -171.5 -298.5t-164.5 -295.5l-65 -117h-154q295 480 467 778q70 121 171.5 300.5t168.5 298.5zM1565 649q0 -54 -17 -105t-44.5 -94.5t-79.5 -97t-102 -97.5t-132 -112h233q66 0 119 38.5t80 113.5l39 -16
q-39 -156 -70 -279h-585l-11 55l258 291q57 63 92 137.5t35 143.5q0 68 -35 106.5t-90 38.5t-83.5 -28t-28.5 -70q0 -46 51 -58q-1 -34 -23.5 -53.5t-54.5 -19.5q-40 0 -70 29.5t-30 86.5q0 98 77 168t199 70q121 0 197 -69t76 -179zM553 602v-59q-100 6 -219 6
q-62 0 -113.5 -1.5t-72.5 -3.5l-21 -1v57l49 12q49 12 69.5 46t20.5 96v428q0 61 -55 61q-12 0 -123 -18l-14 61q159 26 299 133h53v-712q0 -52 16 -74t50 -25z" />
    <glyph glyph-name="threequarters" unicode="&#xbe;" horiz-adv-x="1736" 
d="M1210 1464h154q-299 -492 -471 -786q-71 -121 -171.5 -298.5t-165.5 -295.5l-64 -117h-154q295 480 467 778q70 121 171.5 300.5t167.5 298.5zM469 1214q0 48 -34 81.5t-97 33.5q-60 0 -91.5 -25t-31.5 -59q0 -19 13 -33.5t36 -17.5q-9 -30 -33 -47t-53 -17
q-39 0 -66.5 26.5t-27.5 78.5q0 78 81 138.5t212 60.5q109 0 180.5 -58.5t71.5 -144.5q0 -72 -48.5 -130t-117.5 -79v-8q87 -5 147 -59t60 -138q0 -73 -35 -131t-94 -93.5t-132 -54t-153 -18.5q-74 0 -152 17v67q41 -8 82 -8q75 0 141.5 20.5t114 69t47.5 117.5
q0 151 -198 151l-76 -2l-16 60q6 1 15.5 2t37.5 7.5t53.5 14.5t56.5 24.5t53.5 36.5t38 50.5t15.5 66.5zM1653 225h-170v-82q0 -39 14.5 -55.5t46.5 -19.5l66 -7v-61q-129 6 -207 6l-223 -6v59l51 13q90 22 90 129v24h-391l-25 45l266 424q43 66 43 125q0 49 -38 74
q30 43 86 43q44 0 72 -29t28 -78q0 -48 -30.5 -101.5t-90.5 -129.5l-203 -260h283v256l162 68v-324h170v-113z" />
    <glyph glyph-name="questiondown" unicode="&#xbf;" horiz-adv-x="905" 
d="M506 -467q-105 0 -198.5 44.5t-151.5 124.5t-58 177q0 69 21 128t55 102t75 81.5t82.5 74.5t75.5 72t55 82.5t21 98.5q0 54 -18 92h59q50 -58 72 -114t22 -136q0 -73 -35.5 -139.5t-86 -117.5t-101 -99t-86 -104t-35.5 -113q0 -52 59.5 -92.5t143.5 -40.5q137 0 137 102
q0 14 -2.5 28t-5.5 21l-2 7q29 10 70 10q57 0 95 -33t38 -80q0 -81 -82 -128.5t-219 -47.5zM643 881q0 -62 -42 -105t-105 -43q-62 0 -105 43.5t-43 104.5t43 104t105 43q63 0 105 -42.5t42 -104.5z" />
    <glyph glyph-name="Agrave" unicode="&#xc0;" horiz-adv-x="1507" 
d="M678 1446l151 20l439 -1210q30 -85 66.5 -123t95.5 -49l57 -10v-74q-111 8 -293 8q-93 0 -173.5 -2t-114.5 -4l-34 -2v74l41 10q51 12 78 32.5t27 59.5q0 38 -14 76l-101 276h-448l-88 -256q-19 -59 -19 -90q0 -41 26.5 -65t86.5 -33l69 -10v-74q-137 8 -274 8
q-51 0 -110.5 -2t-93.5 -4l-34 -2v74l45 10q56 12 102.5 60t76.5 128zM684 1180l-188 -539h366zM541 1886q0 31 19 52.5t52 25.5l355 -346l-13 -43q-44 11 -111 42t-136 73t-117.5 95.5t-48.5 100.5z" />
    <glyph glyph-name="Aacute" unicode="&#xc1;" horiz-adv-x="1507" 
d="M678 1446l151 20l439 -1210q30 -85 66.5 -123t95.5 -49l57 -10v-74q-111 8 -293 8q-93 0 -173.5 -2t-114.5 -4l-34 -2v74l41 10q51 12 78 32.5t27 59.5q0 38 -14 76l-101 276h-448l-88 -256q-19 -59 -19 -90q0 -41 26.5 -65t86.5 -33l69 -10v-74q-137 8 -274 8
q-51 0 -110.5 -2t-93.5 -4l-34 -2v74l45 10q56 12 102.5 60t76.5 128zM684 1180l-188 -539h366zM985 1886q0 -47 -49 -100.5t-118 -95.5t-136 -73t-111 -42l-12 43l354 346q33 -4 52.5 -25.5t19.5 -52.5z" />
    <glyph glyph-name="Acircumflex" unicode="&#xc2;" horiz-adv-x="1507" 
d="M678 1446l151 20l439 -1210q30 -85 66.5 -123t95.5 -49l57 -10v-74q-111 8 -293 8q-93 0 -173.5 -2t-114.5 -4l-34 -2v74l41 10q51 12 78 32.5t27 59.5q0 38 -14 76l-101 276h-448l-88 -256q-19 -59 -19 -90q0 -41 26.5 -65t86.5 -33l69 -10v-74q-137 8 -274 8
q-51 0 -110.5 -2t-93.5 -4l-34 -2v74l45 10q56 12 102.5 60t76.5 128zM684 1180l-188 -539h366zM408 1595l350 369l340 -346q0 -30 -18.5 -54t-59.5 -24q-45 0 -90.5 33.5t-80 84.5t-58.5 101.5t-37 93.5l-213 -313z" />
    <glyph glyph-name="Atilde" unicode="&#xc3;" horiz-adv-x="1507" 
d="M678 1446l151 20l439 -1210q30 -85 66.5 -123t95.5 -49l57 -10v-74q-111 8 -293 8q-93 0 -173.5 -2t-114.5 -4l-34 -2v74l41 10q51 12 78 32.5t27 59.5q0 38 -14 76l-101 276h-448l-88 -256q-19 -59 -19 -90q0 -41 26.5 -65t86.5 -33l69 -10v-74q-137 8 -274 8
q-51 0 -110.5 -2t-93.5 -4l-34 -2v74l45 10q56 12 102.5 60t76.5 128zM684 1180l-188 -539h366zM590 1688q-46 0 -80 -29.5t-49 -83.5l-43 43q15 91 64 151t130 60q42 0 84 -16t71 -35.5t70 -35.5t81 -16q46 0 80 29.5t49 83.5l43 -43q-15 -91 -64.5 -151t-130.5 -60
q-42 0 -84 16t-71 35.5t-69.5 35.5t-80.5 16z" />
    <glyph glyph-name="Adieresis" unicode="&#xc4;" horiz-adv-x="1507" 
d="M678 1446l151 20l439 -1210q30 -85 66.5 -123t95.5 -49l57 -10v-74q-111 8 -293 8q-93 0 -173.5 -2t-114.5 -4l-34 -2v74l41 10q51 12 78 32.5t27 59.5q0 38 -14 76l-101 276h-448l-88 -256q-19 -59 -19 -90q0 -41 26.5 -65t86.5 -33l69 -10v-74q-137 8 -274 8
q-51 0 -110.5 -2t-93.5 -4l-34 -2v74l45 10q56 12 102.5 60t76.5 128zM684 1180l-188 -539h366zM432 1698q0 55 35.5 91t89.5 36q55 0 91 -35.5t36 -91.5q0 -54 -36 -89.5t-91 -35.5q-54 0 -89.5 35.5t-35.5 89.5zM821 1698q0 55 35.5 91t89.5 36q56 0 91.5 -35.5
t35.5 -91.5q0 -54 -36 -89.5t-91 -35.5q-54 0 -89.5 35.5t-35.5 89.5z" />
    <glyph glyph-name="Aring" unicode="&#xc5;" horiz-adv-x="1507" 
d="M678 1446l151 20l439 -1210q30 -85 66.5 -123t95.5 -49l57 -10v-74q-111 8 -293 8q-93 0 -173.5 -2t-114.5 -4l-34 -2v74l41 10q51 12 78 32.5t27 59.5q0 38 -14 76l-101 276h-448l-88 -256q-19 -59 -19 -90q0 -41 26.5 -65t86.5 -33l69 -10v-74q-137 8 -274 8
q-51 0 -110.5 -2t-93.5 -4l-34 -2v74l45 10q56 12 102.5 60t76.5 128zM684 1180l-188 -539h366zM766 1626q52 0 77 32.5t25 86.5q0 59 -35 94t-85 35q-51 0 -77 -33t-26 -86q0 -59 36 -94t85 -35zM770 1946q78 0 132 -51t54 -136q0 -81 -59 -142t-154 -61q-78 0 -132 51.5
t-54 137.5q0 80 59 140.5t154 60.5z" />
    <glyph glyph-name="AE" unicode="&#xc6;" horiz-adv-x="1841" 
d="M1059 8q-72 0 -147 -2t-114 -4l-40 -2v74l49 10q131 26 131 188v256h-399l-142 -256q-30 -51 -39 -90q-2 -8 -2 -22q0 -59 95 -76l59 -10v-74q-144 8 -281 8q-50 0 -111.5 -2t-97.5 -4l-36 -2v74l63 10q59 9 118.5 58t106.5 130l559 959q17 30 17 49q0 28 -31.5 43.5
t-99.5 26.5l-64 10v74q277 -9 422 -9l662 9v-314h-68q-15 111 -102 170.5t-244 59.5q-88 0 -127 -13v-557h131q73 0 119 39t57 107l15 94h73q-8 -104 -8 -262q0 -56 2 -116.5t4 -93.5l2 -32h-75l-13 62q-22 94 -149 94h-158v-455q0 -133 166 -133q147 0 228.5 60.5
t125.5 191.5l68 -8l-58 -328q-450 8 -667 8zM938 641v594l-334 -594h334z" />
    <glyph glyph-name="Ccedilla" unicode="&#xc7;" horiz-adv-x="1460" 
d="M1374 1407v-383h-67q-33 154 -148 246t-311 92q-229 0 -365.5 -169.5t-136.5 -449.5q0 -135 37 -255.5t107 -214.5t180.5 -149.5t247.5 -55.5q85 0 155 28.5t114.5 76.5t71.5 102t39 114l68 -4l-37 -340q-99 0 -241.5 -38t-266.5 -40q-14 -17 -14 -45q0 -23 16.5 -43.5
t40 -36.5t47 -34.5t40 -47.5t16.5 -65q0 -69 -76 -115.5t-170 -46.5q-74 0 -121 30t-47 81q0 36 25.5 59t62.5 23q27 0 47 -13q-20 -20 -20 -51q0 -55 75 -55q41 0 63.5 16t22.5 43q0 19 -22 39t-48.5 37t-48.5 50.5t-22 76.5q0 61 49 100q-147 9 -271 60.5t-214.5 140
t-141.5 219.5t-51 291q0 123 34.5 238t104 213.5t165 172.5t226 116t279.5 42q107 0 255.5 -27.5t250.5 -27.5z" />
    <glyph glyph-name="Egrave" unicode="&#xc8;" horiz-adv-x="1159" 
d="M377 8q-72 0 -147 -2t-114 -4l-40 -2v74l49 10q131 26 131 188v938q0 76 -22.5 102.5t-92.5 37.5l-63 10v74q170 -9 315 -9l662 9v-314h-68q-15 111 -102 170.5t-244 59.5q-88 0 -127 -13v-557h131q73 0 119 39t57 107l15 94h73q-8 -104 -8 -262q0 -56 2 -116.5t4 -93.5
l2 -32h-75l-13 62q-22 94 -149 94h-158v-455q0 -133 166 -133q147 0 228.5 60.5t125.5 191.5l68 -8l-58 -328q-450 8 -667 8zM401 1886q0 31 19.5 52.5t52.5 25.5l354 -346l-12 -43q-44 11 -111 42t-136 73t-118 95.5t-49 100.5z" />
    <glyph glyph-name="Eacute" unicode="&#xc9;" horiz-adv-x="1159" 
d="M377 8q-72 0 -147 -2t-114 -4l-40 -2v74l49 10q131 26 131 188v938q0 76 -22.5 102.5t-92.5 37.5l-63 10v74q170 -9 315 -9l662 9v-314h-68q-15 111 -102 170.5t-244 59.5q-88 0 -127 -13v-557h131q73 0 119 39t57 107l15 94h73q-8 -104 -8 -262q0 -56 2 -116.5t4 -93.5
l2 -32h-75l-13 62q-22 94 -149 94h-158v-455q0 -133 166 -133q147 0 228.5 60.5t125.5 191.5l68 -8l-58 -328q-450 8 -667 8zM801 1886q0 -47 -49 -100.5t-118 -95.5t-136 -73t-111 -42l-12 43l354 346q33 -4 52.5 -25.5t19.5 -52.5z" />
    <glyph glyph-name="Ecircumflex" unicode="&#xca;" horiz-adv-x="1159" 
d="M377 8q-72 0 -147 -2t-114 -4l-40 -2v74l49 10q131 26 131 188v938q0 76 -22.5 102.5t-92.5 37.5l-63 10v74q170 -9 315 -9l662 9v-314h-68q-15 111 -102 170.5t-244 59.5q-88 0 -127 -13v-557h131q73 0 119 39t57 107l15 94h73q-8 -104 -8 -262q0 -56 2 -116.5t4 -93.5
l2 -32h-75l-13 62q-22 94 -149 94h-158v-455q0 -133 166 -133q147 0 228.5 60.5t125.5 191.5l68 -8l-58 -328q-450 8 -667 8zM262 1595l350 369l340 -346q0 -30 -18.5 -54t-59.5 -24q-45 0 -90.5 33.5t-80 84.5t-58.5 101.5t-37 93.5l-213 -313z" />
    <glyph glyph-name="Edieresis" unicode="&#xcb;" horiz-adv-x="1159" 
d="M377 8q-72 0 -147 -2t-114 -4l-40 -2v74l49 10q131 26 131 188v938q0 76 -22.5 102.5t-92.5 37.5l-63 10v74q170 -9 315 -9l662 9v-314h-68q-15 111 -102 170.5t-244 59.5q-88 0 -127 -13v-557h131q73 0 119 39t57 107l15 94h73q-8 -104 -8 -262q0 -56 2 -116.5t4 -93.5
l2 -32h-75l-13 62q-22 94 -149 94h-158v-455q0 -133 166 -133q147 0 228.5 60.5t125.5 191.5l68 -8l-58 -328q-450 8 -667 8zM289 1698q0 55 35.5 91t89.5 36q56 0 91.5 -35.5t35.5 -91.5q0 -54 -36 -89.5t-91 -35.5q-54 0 -89.5 35.5t-35.5 89.5zM678 1698q0 55 35.5 91
t89.5 36q55 0 91 -35.5t36 -91.5q0 -54 -36 -89.5t-91 -35.5q-54 0 -89.5 35.5t-35.5 89.5z" />
    <glyph glyph-name="Igrave" unicode="&#xcc;" horiz-adv-x="770" 
d="M256 272v938q0 76 -22.5 102.5t-92.5 37.5l-63 10v74q170 -9 315 -9q72 0 147 2.5t114 4.5l40 2v-74l-49 -10q-131 -26 -131 -189v-938q0 -75 22.5 -101.5t92.5 -37.5l63 -10v-74q-170 8 -315 8q-72 0 -147 -2t-114 -4l-40 -2v74l49 10q131 26 131 188zM195 1886
q0 31 19 52.5t52 25.5l355 -346l-13 -43q-44 11 -111 42t-136 73t-117.5 95.5t-48.5 100.5z" />
    <glyph glyph-name="Iacute" unicode="&#xcd;" horiz-adv-x="770" 
d="M256 272v938q0 76 -22.5 102.5t-92.5 37.5l-63 10v74q170 -9 315 -9q72 0 147 2.5t114 4.5l40 2v-74l-49 -10q-131 -26 -131 -189v-938q0 -75 22.5 -101.5t92.5 -37.5l63 -10v-74q-170 8 -315 8q-72 0 -147 -2t-114 -4l-40 -2v74l49 10q131 26 131 188zM598 1886
q0 -47 -49 -100.5t-118 -95.5t-136 -73t-111 -42l-12 43l354 346q33 -4 52.5 -25.5t19.5 -52.5z" />
    <glyph glyph-name="Icircumflex" unicode="&#xce;" horiz-adv-x="770" 
d="M256 272v938q0 76 -22.5 102.5t-92.5 37.5l-63 10v74q170 -9 315 -9q72 0 147 2.5t114 4.5l40 2v-74l-49 -10q-131 -26 -131 -189v-938q0 -75 22.5 -101.5t92.5 -37.5l63 -10v-74q-170 8 -315 8q-72 0 -147 -2t-114 -4l-40 -2v74l49 10q131 26 131 188zM57 1595l351 369
l340 -346q0 -30 -18.5 -54t-59.5 -24q-45 0 -91 33.5t-80 84.5t-58.5 101.5t-37.5 93.5l-213 -313z" />
    <glyph glyph-name="Idieresis" unicode="&#xcf;" horiz-adv-x="770" 
d="M256 272v938q0 76 -22.5 102.5t-92.5 37.5l-63 10v74q170 -9 315 -9q72 0 147 2.5t114 4.5l40 2v-74l-49 -10q-131 -26 -131 -189v-938q0 -75 22.5 -101.5t92.5 -37.5l63 -10v-74q-170 8 -315 8q-72 0 -147 -2t-114 -4l-40 -2v74l49 10q131 26 131 188zM68 1698
q0 55 35.5 91t89.5 36q55 0 90.5 -35.5t35.5 -91.5q0 -54 -35.5 -89.5t-90.5 -35.5q-54 0 -89.5 35.5t-35.5 89.5zM457 1698q0 55 35.5 91t89.5 36q56 0 91.5 -35.5t35.5 -91.5q0 -54 -36 -89.5t-91 -35.5q-54 0 -89.5 35.5t-35.5 89.5z" />
    <glyph glyph-name="Eth" unicode="&#xd0;" horiz-adv-x="1581" 
d="M713 0q-63 0 -162 4t-174 4q-72 0 -147 -2t-114 -4l-40 -2v74l49 10q131 26 131 188v375l-225 -2v135q119 -2 225 -2v432q0 76 -22.5 102.5t-92.5 37.5l-63 10v74q170 -9 315 -9q88 0 228 4.5t186 4.5q147 0 275.5 -45t227 -129t155.5 -215.5t57 -294.5
q0 -151 -54.5 -286.5t-155 -239t-255.5 -164t-344 -60.5zM678 84q130 0 228 30.5t160 83t100.5 130.5t53.5 164t15 194q0 303 -162 483.5t-428 180.5q-92 0 -131 -13v-559q70 0 187 1t130 1v-135q-194 0 -317 2v-424q0 -139 164 -139z" />
    <glyph glyph-name="Ntilde" unicode="&#xd1;" horiz-adv-x="1654" 
d="M1407 1425q63 0 119 2.5t81 4.5l25 2v-74l-37 -6q-135 -22 -135 -207v-1155l-104 -12l-971 1073v-779q0 -53 11 -87.5t37 -54.5t55.5 -30t80.5 -18l60 -10v-74q-166 8 -285 8q-65 0 -140 -2t-117 -4l-42 -2v74l45 10q82 18 119 58t37 128v961q0 56 -35.5 85t-112.5 38
l-51 6v74q177 -11 404 -11q13 -58 39.5 -101.5t84.5 -107.5l752 -839v809q0 89 -41 125.5t-129 44.5l-61 6v74q170 -9 311 -9zM664 1585q-46 0 -80 -29t-49 -83l-43 43q15 91 64 150.5t130 59.5q53 0 104 -25.5t101 -51t100 -25.5q46 0 80 29.5t49 83.5l43 -43
q-15 -91 -64 -151t-130 -60q-53 0 -104 25.5t-101 51t-100 25.5z" />
    <glyph glyph-name="Ograve" unicode="&#xd2;" horiz-adv-x="1642" 
d="M864 68q112 0 196.5 48t135 134t75.5 195.5t25 240.5q0 149 -41.5 276.5t-112 214.5t-165 136t-199.5 49q-112 0 -196.5 -48.5t-135 -134.5t-75.5 -195.5t-25 -240.5q0 -149 41.5 -276.5t112 -214t165 -135.5t199.5 -49zM868 1462q145 0 275 -49.5t228 -139t155 -225
t57 -298.5q0 -121 -33.5 -235.5t-102 -213.5t-163.5 -173.5t-226.5 -117.5t-283.5 -43q-145 0 -275 49.5t-227.5 139t-155 225.5t-57.5 299q0 121 33.5 235t102 213.5t163.5 174t226.5 117t283.5 42.5zM618 1886q0 31 19.5 52.5t52.5 25.5l354 -346l-12 -43q-44 11 -111 42
t-136 73t-118 95.5t-49 100.5z" />
    <glyph glyph-name="Oacute" unicode="&#xd3;" horiz-adv-x="1642" 
d="M864 68q112 0 196.5 48t135 134t75.5 195.5t25 240.5q0 149 -41.5 276.5t-112 214.5t-165 136t-199.5 49q-112 0 -196.5 -48.5t-135 -134.5t-75.5 -195.5t-25 -240.5q0 -149 41.5 -276.5t112 -214t165 -135.5t199.5 -49zM868 1462q145 0 275 -49.5t228 -139t155 -225
t57 -298.5q0 -121 -33.5 -235.5t-102 -213.5t-163.5 -173.5t-226.5 -117.5t-283.5 -43q-145 0 -275 49.5t-227.5 139t-155 225.5t-57.5 299q0 121 33.5 235t102 213.5t163.5 174t226.5 117t283.5 42.5zM1028 1886q0 -47 -49 -100.5t-118 -95.5t-136 -73t-111 -42l-12 43
l354 346q33 -4 52.5 -25.5t19.5 -52.5z" />
    <glyph glyph-name="Ocircumflex" unicode="&#xd4;" horiz-adv-x="1642" 
d="M864 68q112 0 196.5 48t135 134t75.5 195.5t25 240.5q0 149 -41.5 276.5t-112 214.5t-165 136t-199.5 49q-112 0 -196.5 -48.5t-135 -134.5t-75.5 -195.5t-25 -240.5q0 -149 41.5 -276.5t112 -214t165 -135.5t199.5 -49zM868 1462q145 0 275 -49.5t228 -139t155 -225
t57 -298.5q0 -121 -33.5 -235.5t-102 -213.5t-163.5 -173.5t-226.5 -117.5t-283.5 -43q-145 0 -275 49.5t-227.5 139t-155 225.5t-57.5 299q0 121 33.5 235t102 213.5t163.5 174t226.5 117t283.5 42.5zM477 1595l350 369l340 -346q0 -31 -18 -54.5t-59 -23.5q-45 0 -91 33.5
t-80 84.5t-58.5 101.5t-37.5 93.5l-213 -313z" />
    <glyph glyph-name="Otilde" unicode="&#xd5;" horiz-adv-x="1642" 
d="M864 68q112 0 196.5 48t135 134t75.5 195.5t25 240.5q0 149 -41.5 276.5t-112 214.5t-165 136t-199.5 49q-112 0 -196.5 -48.5t-135 -134.5t-75.5 -195.5t-25 -240.5q0 -149 41.5 -276.5t112 -214t165 -135.5t199.5 -49zM868 1462q145 0 275 -49.5t228 -139t155 -225
t57 -298.5q0 -121 -33.5 -235.5t-102 -213.5t-163.5 -173.5t-226.5 -117.5t-283.5 -43q-145 0 -275 49.5t-227.5 139t-155 225.5t-57.5 299q0 121 33.5 235t102 213.5t163.5 174t226.5 117t283.5 42.5zM666 1688q-46 0 -80 -29.5t-49 -83.5l-43 43q15 91 64 151t130 60
q42 0 84 -16t71 -35.5t69.5 -35.5t80.5 -16q46 0 80 29.5t49 83.5l43 -43q-15 -91 -64 -151t-130 -60q-42 0 -84 16t-71 35.5t-69.5 35.5t-80.5 16z" />
    <glyph glyph-name="Odieresis" unicode="&#xd6;" horiz-adv-x="1642" 
d="M864 68q112 0 196.5 48t135 134t75.5 195.5t25 240.5q0 149 -41.5 276.5t-112 214.5t-165 136t-199.5 49q-112 0 -196.5 -48.5t-135 -134.5t-75.5 -195.5t-25 -240.5q0 -149 41.5 -276.5t112 -214t165 -135.5t199.5 -49zM868 1462q145 0 275 -49.5t228 -139t155 -225
t57 -298.5q0 -121 -33.5 -235.5t-102 -213.5t-163.5 -173.5t-226.5 -117.5t-283.5 -43q-145 0 -275 49.5t-227.5 139t-155 225.5t-57.5 299q0 121 33.5 235t102 213.5t163.5 174t226.5 117t283.5 42.5zM500 1698q0 55 35.5 91t89.5 36q55 0 91 -35.5t36 -91.5
q0 -54 -36 -89.5t-91 -35.5q-54 0 -89.5 35.5t-35.5 89.5zM889 1698q0 55 35.5 91t89.5 36q56 0 91.5 -35.5t35.5 -91.5q0 -54 -36 -89.5t-91 -35.5q-54 0 -89.5 35.5t-35.5 89.5z" />
    <glyph glyph-name="multiply" unicode="&#xd7;" 
d="M569 584l320 321l131 -127l-320 -323l320 -322l-131 -131l-320 322l-319 -322l-131 131l319 322l-319 323l131 127z" />
    <glyph glyph-name="Oslash" unicode="&#xd8;" horiz-adv-x="1642" 
d="M868 1462q190 0 351 -82l59 82h184q-51 -66 -125 -162q116 -95 181 -235t65 -315q0 -121 -33.5 -235.5t-102 -213.5t-163.5 -173.5t-226.5 -117.5t-283.5 -43q-198 0 -362 88l-64 -88h-184q53 68 129 168q-111 95 -172.5 234t-61.5 311q0 121 33.5 235t102 213.5
t163.5 174t226.5 117t283.5 42.5zM864 68q112 0 196.5 48t135 134t75.5 195.5t25 240.5q0 241 -106 422q-236 -305 -322 -424l-340 -465q142 -151 336 -151zM752 743q15 21 142.5 194.5t207.5 283.5q-138 141 -324 141q-112 0 -196.5 -48.5t-135 -134.5t-75.5 -195.5
t-25 -240.5q0 -234 98 -409q183 236 308 409z" />
    <glyph glyph-name="Ugrave" unicode="&#xd9;" horiz-adv-x="1562" 
d="M256 479v731q0 76 -22.5 102.5t-92.5 37.5l-63 10v74q170 -9 315 -9q72 0 147 2.5t114 4.5l40 2v-74l-49 -10q-131 -26 -131 -189v-688q0 -186 88 -275t270 -89q178 0 265.5 89.5t87.5 274.5v737q0 73 -28 101t-101 39l-66 10v74q92 -9 256 -9q64 0 126.5 2.5t93.5 4.5
l30 2v-74l-49 -10q-129 -25 -129 -189v-682q0 -234 -134 -373t-405 -139q-282 0 -422.5 126.5t-140.5 385.5zM633 1886q0 31 19.5 52.5t52.5 25.5l354 -346l-12 -43q-44 11 -111 42t-136 73t-118 95.5t-49 100.5z" />
    <glyph glyph-name="Uacute" unicode="&#xda;" horiz-adv-x="1562" 
d="M256 479v731q0 76 -22.5 102.5t-92.5 37.5l-63 10v74q170 -9 315 -9q72 0 147 2.5t114 4.5l40 2v-74l-49 -10q-131 -26 -131 -189v-688q0 -186 88 -275t270 -89q178 0 265.5 89.5t87.5 274.5v737q0 73 -28 101t-101 39l-66 10v74q92 -9 256 -9q64 0 126.5 2.5t93.5 4.5
l30 2v-74l-49 -10q-129 -25 -129 -189v-682q0 -234 -134 -373t-405 -139q-282 0 -422.5 126.5t-140.5 385.5zM1106 1886q0 -47 -49 -100.5t-118 -95.5t-136 -73t-111 -42l-12 43l354 346q33 -4 52.5 -25.5t19.5 -52.5z" />
    <glyph glyph-name="Ucircumflex" unicode="&#xdb;" horiz-adv-x="1562" 
d="M256 479v731q0 76 -22.5 102.5t-92.5 37.5l-63 10v74q170 -9 315 -9q72 0 147 2.5t114 4.5l40 2v-74l-49 -10q-131 -26 -131 -189v-688q0 -186 88 -275t270 -89q178 0 265.5 89.5t87.5 274.5v737q0 73 -28 101t-101 39l-66 10v74q92 -9 256 -9q64 0 126.5 2.5t93.5 4.5
l30 2v-74l-49 -10q-129 -25 -129 -189v-682q0 -234 -134 -373t-405 -139q-282 0 -422.5 126.5t-140.5 385.5zM475 1595l350 369l340 -346q0 -30 -18.5 -54t-59.5 -24q-45 0 -90.5 33.5t-80 84.5t-58.5 101.5t-37 93.5l-213 -313z" />
    <glyph glyph-name="Udieresis" unicode="&#xdc;" horiz-adv-x="1562" 
d="M256 479v731q0 76 -22.5 102.5t-92.5 37.5l-63 10v74q170 -9 315 -9q72 0 147 2.5t114 4.5l40 2v-74l-49 -10q-131 -26 -131 -189v-688q0 -186 88 -275t270 -89q178 0 265.5 89.5t87.5 274.5v737q0 73 -28 101t-101 39l-66 10v74q92 -9 256 -9q64 0 126.5 2.5t93.5 4.5
l30 2v-74l-49 -10q-129 -25 -129 -189v-682q0 -234 -134 -373t-405 -139q-282 0 -422.5 126.5t-140.5 385.5zM522 1698q0 55 35.5 91t89.5 36q55 0 91 -35.5t36 -91.5q0 -54 -36 -89.5t-91 -35.5q-54 0 -89.5 35.5t-35.5 89.5zM911 1698q0 55 35.5 91t89.5 36
q56 0 91.5 -35.5t35.5 -91.5q0 -54 -36 -89.5t-91 -35.5q-54 0 -89.5 35.5t-35.5 89.5z" />
    <glyph glyph-name="Yacute" unicode="&#xdd;" horiz-adv-x="1503" 
d="M1200 1157l-315 -551v-383q0 -76 22 -102t92 -37l64 -10v-74q-170 8 -315 8q-72 0 -147.5 -2t-114.5 -4l-40 -2v74l50 10q131 26 131 188v320l-330 588q-83 143 -217 170l-47 10v74q114 -11 278 -11q83 0 162.5 2.5t117.5 5.5l38 3v-74l-33 -10q-55 -18 -55 -70
q0 -23 12 -47l278 -508l271 481q26 48 26 84q0 43 -61 60l-35 10v74q115 -9 242 -9q47 0 95 2.5t73 4.5l24 2v-74l-41 -10q-67 -16 -120 -59.5t-105 -133.5zM1122 1886q0 -47 -48.5 -100.5t-117.5 -95.5t-136 -73t-111 -42l-13 43l355 346q33 -4 52 -25.5t19 -52.5z" />
    <glyph glyph-name="Thorn" unicode="&#xde;" horiz-adv-x="1234" 
d="M256 272v938q0 76 -22.5 102.5t-92.5 37.5l-63 10v74q170 -9 315 -9q72 0 147 2.5t114 4.5l40 2v-74l-49 -10q-131 -26 -131 -189v-88q16 1 52.5 17t85.5 30.5t98 14.5q82 0 157.5 -28t136 -79.5t96.5 -132t36 -178.5q0 -193 -124 -306.5t-302 -113.5q-49 0 -98 14.5
t-85.5 30t-52.5 16.5v-135q0 -75 22.5 -101.5t92.5 -37.5l63 -10v-74q-170 8 -315 8q-72 0 -147 -2t-114 -4l-40 -2v74l49 10q131 26 131 188zM678 1022q-49 0 -99.5 -17.5t-64.5 -17.5v-545q12 -1 63 -17.5t101 -16.5q106 0 165.5 86.5t59.5 222.5q0 134 -60 219.5
t-165 85.5z" />
    <glyph glyph-name="germandbls" unicode="&#xdf;" horiz-adv-x="1380" 
d="M760 1432q-129 0 -197.5 -96.5t-68.5 -260.5v-891q0 -53 12 -76t49 -30l57 -10v-68q-112 6 -245 6l-277 -6v68l37 6q54 10 88.5 42.5t34.5 84.5v608h-148l-8 61q10 2 27 6t58.5 23t70.5 45v70q0 122 48 223.5t126.5 165t174 98.5t194.5 35q207 0 335.5 -86t128.5 -195
q0 -56 -19 -101.5t-50 -77t-68 -58t-74 -50.5t-68 -48t-50 -56.5t-19 -70.5q0 -32 23 -62t59.5 -56t80.5 -53t88 -60t80.5 -70t59.5 -89.5t23 -113.5q0 -148 -102.5 -235t-280.5 -87q-115 0 -206 53.5t-91 139.5q0 57 37 86.5t86 29.5q18 0 37.5 -2.5t30.5 -5.5l10 -2
q-17 -43 -17 -71q0 -57 41 -94.5t111 -37.5q71 0 109 41.5t38 108.5q0 47 -23.5 86t-61.5 68t-84 56.5t-92 56.5t-84 61.5t-61.5 79t-23.5 102.5q0 59 34 107.5t82 85.5t96 76.5t82 98.5t34 134q0 207 -264 207z" />
    <glyph glyph-name="agrave" unicode="&#xe0;" horiz-adv-x="1044" 
d="M608 651q0 106 -35.5 150.5t-121.5 44.5q-57 0 -90 -28t-33 -64q0 -38 22 -66q-40 -37 -106 -37q-52 0 -89.5 25.5t-37.5 68.5q0 64 59.5 112.5t150 72.5t193.5 24q145 0 239.5 -81t94.5 -232q0 -59 -8 -197t-8 -196q0 -64 28 -106t80 -42q24 0 44 4t28 8l8 3l27 -45
q-3 -4 -9.5 -11t-28.5 -25t-46 -31.5t-62.5 -24.5t-79.5 -11q-72 0 -121.5 29t-74.5 72q-26 0 -57 -16t-58.5 -34.5t-79.5 -34.5t-114 -16q-112 0 -182 55.5t-70 155.5q0 151 137.5 229t394.5 78q6 100 6 166zM311 213q0 -57 34 -89t99 -32q30 0 82 17.5t82 21.5
q-14 43 -14 123q0 33 2 71.5t4 60.5l2 22q-76 0 -140 -19.5t-107.5 -65t-43.5 -110.5zM334 1356q0 31 19.5 52.5t52.5 25.5l354 -347l-12 -43q-44 11 -111 42t-136 73.5t-118 96t-49 100.5z" />
    <glyph glyph-name="aacute" unicode="&#xe1;" horiz-adv-x="1044" 
d="M608 651q0 106 -35.5 150.5t-121.5 44.5q-57 0 -90 -28t-33 -64q0 -38 22 -66q-40 -37 -106 -37q-52 0 -89.5 25.5t-37.5 68.5q0 64 59.5 112.5t150 72.5t193.5 24q145 0 239.5 -81t94.5 -232q0 -59 -8 -197t-8 -196q0 -64 28 -106t80 -42q24 0 44 4t28 8l8 3l27 -45
q-3 -4 -9.5 -11t-28.5 -25t-46 -31.5t-62.5 -24.5t-79.5 -11q-72 0 -121.5 29t-74.5 72q-26 0 -57 -16t-58.5 -34.5t-79.5 -34.5t-114 -16q-112 0 -182 55.5t-70 155.5q0 151 137.5 229t394.5 78q6 100 6 166zM311 213q0 -57 34 -89t99 -32q30 0 82 17.5t82 21.5
q-14 43 -14 123q0 33 2 71.5t4 60.5l2 22q-76 0 -140 -19.5t-107.5 -65t-43.5 -110.5zM791 1356q0 -47 -49 -100.5t-118 -96t-136 -73.5t-111 -42l-12 43l354 347q33 -4 52.5 -25.5t19.5 -52.5z" />
    <glyph glyph-name="acircumflex" unicode="&#xe2;" horiz-adv-x="1044" 
d="M608 651q0 106 -35.5 150.5t-121.5 44.5q-57 0 -90 -28t-33 -64q0 -38 22 -66q-40 -37 -106 -37q-52 0 -89.5 25.5t-37.5 68.5q0 64 59.5 112.5t150 72.5t193.5 24q145 0 239.5 -81t94.5 -232q0 -59 -8 -197t-8 -196q0 -64 28 -106t80 -42q24 0 44 4t28 8l8 3l27 -45
q-3 -4 -9.5 -11t-28.5 -25t-46 -31.5t-62.5 -24.5t-79.5 -11q-72 0 -121.5 29t-74.5 72q-26 0 -57 -16t-58.5 -34.5t-79.5 -34.5t-114 -16q-112 0 -182 55.5t-70 155.5q0 151 137.5 229t394.5 78q6 100 6 166zM311 213q0 -57 34 -89t99 -32q30 0 82 17.5t82 21.5
q-14 43 -14 123q0 33 2 71.5t4 60.5l2 22q-76 0 -140 -19.5t-107.5 -65t-43.5 -110.5zM174 1065l350 369l340 -347q0 -30 -18.5 -53.5t-59.5 -23.5q-45 0 -90.5 33.5t-80 84.5t-58.5 101.5t-37 93.5l-213 -313z" />
    <glyph glyph-name="atilde" unicode="&#xe3;" horiz-adv-x="1044" 
d="M608 651q0 106 -35.5 150.5t-121.5 44.5q-57 0 -90 -28t-33 -64q0 -38 22 -66q-40 -37 -106 -37q-52 0 -89.5 25.5t-37.5 68.5q0 64 59.5 112.5t150 72.5t193.5 24q145 0 239.5 -81t94.5 -232q0 -59 -8 -197t-8 -196q0 -64 28 -106t80 -42q24 0 44 4t28 8l8 3l27 -45
q-3 -4 -9.5 -11t-28.5 -25t-46 -31.5t-62.5 -24.5t-79.5 -11q-72 0 -121.5 29t-74.5 72q-26 0 -57 -16t-58.5 -34.5t-79.5 -34.5t-114 -16q-112 0 -182 55.5t-70 155.5q0 151 137.5 229t394.5 78q6 100 6 166zM311 213q0 -57 34 -89t99 -32q30 0 82 17.5t82 21.5
q-14 43 -14 123q0 33 2 71.5t4 60.5l2 22q-76 0 -140 -19.5t-107.5 -65t-43.5 -110.5zM340 1176q-46 0 -80 -29.5t-49 -83.5l-43 43q15 91 64 151t130 60q42 0 84 -16t71 -35.5t70 -35.5t81 -16q46 0 80 29.5t49 83.5l43 -43q-15 -91 -64.5 -151t-130.5 -60q-42 0 -84 16
t-71 35.5t-69.5 35.5t-80.5 16z" />
    <glyph glyph-name="adieresis" unicode="&#xe4;" horiz-adv-x="1044" 
d="M608 651q0 106 -35.5 150.5t-121.5 44.5q-57 0 -90 -28t-33 -64q0 -38 22 -66q-40 -37 -106 -37q-52 0 -89.5 25.5t-37.5 68.5q0 64 59.5 112.5t150 72.5t193.5 24q145 0 239.5 -81t94.5 -232q0 -59 -8 -197t-8 -196q0 -64 28 -106t80 -42q24 0 44 4t28 8l8 3l27 -45
q-3 -4 -9.5 -11t-28.5 -25t-46 -31.5t-62.5 -24.5t-79.5 -11q-72 0 -121.5 29t-74.5 72q-26 0 -57 -16t-58.5 -34.5t-79.5 -34.5t-114 -16q-112 0 -182 55.5t-70 155.5q0 151 137.5 229t394.5 78q6 100 6 166zM311 213q0 -57 34 -89t99 -32q30 0 82 17.5t82 21.5
q-14 43 -14 123q0 33 2 71.5t4 60.5l2 22q-76 0 -140 -19.5t-107.5 -65t-43.5 -110.5zM203 1188q0 55 35.5 91t89.5 36q56 0 91.5 -35.5t35.5 -91.5q0 -54 -36 -89.5t-91 -35.5q-54 0 -89.5 35.5t-35.5 89.5zM592 1188q0 55 35.5 91t89.5 36q55 0 91 -35.5t36 -91.5
q0 -54 -36 -89.5t-91 -35.5q-54 0 -89.5 35.5t-35.5 89.5z" />
    <glyph glyph-name="aring" unicode="&#xe5;" horiz-adv-x="1044" 
d="M608 651q0 106 -35.5 150.5t-121.5 44.5q-57 0 -90 -28t-33 -64q0 -38 22 -66q-40 -37 -106 -37q-52 0 -89.5 25.5t-37.5 68.5q0 64 59.5 112.5t150 72.5t193.5 24q145 0 239.5 -81t94.5 -232q0 -59 -8 -197t-8 -196q0 -64 28 -106t80 -42q24 0 44 4t28 8l8 3l27 -45
q-3 -4 -9.5 -11t-28.5 -25t-46 -31.5t-62.5 -24.5t-79.5 -11q-72 0 -121.5 29t-74.5 72q-26 0 -57 -16t-58.5 -34.5t-79.5 -34.5t-114 -16q-112 0 -182 55.5t-70 155.5q0 151 137.5 229t394.5 78q6 100 6 166zM311 213q0 -57 34 -89t99 -32q30 0 82 17.5t82 21.5
q-14 43 -14 123q0 33 2 71.5t4 60.5l2 22q-76 0 -140 -19.5t-107.5 -65t-43.5 -110.5zM528 1143q52 0 77.5 32.5t25.5 86.5q0 59 -35.5 94t-85.5 35t-76 -32.5t-26 -86.5q0 -59 35.5 -94t84.5 -35zM532 1462q78 0 132.5 -50.5t54.5 -135.5q0 -81 -59 -142t-154 -61
q-78 0 -132.5 51.5t-54.5 137.5q0 80 59 140t154 60z" />
    <glyph glyph-name="ae" unicode="&#xe6;" horiz-adv-x="1511" 
d="M1470 600l-47 -47h-585q-4 -37 -4 -74q0 -71 19.5 -133t60 -113.5t110.5 -81.5t162 -30q123 0 231 33l29 -54q-157 -133 -393 -133q-195 0 -320 119q-28 -3 -71 -22t-84.5 -40.5t-109 -39t-138.5 -17.5q-114 0 -189 56t-75 155q0 151 138.5 229t395.5 78q4 100 4 166
q0 106 -36 150.5t-122 44.5q-57 0 -89.5 -27.5t-32.5 -64.5q0 -38 22 -66q-40 -37 -106 -37q-52 0 -89.5 25.5t-37.5 68.5q0 64 59.5 112.5t150 72.5t193.5 24q86 0 163 -35t105 -92q137 127 336 127q175 0 262.5 -96.5t87.5 -257.5zM307 213q0 -55 40 -88t108 -33
q47 0 129 26t98 29q-74 110 -80 261q-76 -1 -140.5 -20.5t-109.5 -65t-45 -109.5zM848 631l383 18q2 14 2 37q0 22 -2.5 42t-11.5 46t-24 45t-43.5 32t-66.5 13q-90 0 -156 -64t-81 -169z" />
    <glyph glyph-name="ccedilla" unicode="&#xe7;" horiz-adv-x="974" 
d="M715 696q12 25 12 54q0 44 -41 76t-139 32q-73 0 -125 -53t-76 -137t-24 -189q0 -192 81 -277t240 -85q123 0 219 35l27 -52q-76 -63 -151 -94t-189 -37q-14 -21 -14 -47q0 -23 16.5 -43.5t39.5 -36.5t46.5 -34.5t40 -47.5t16.5 -65q0 -69 -75.5 -115.5t-169.5 -46.5
q-74 0 -121 30t-47 81q0 36 25.5 59t62.5 23q27 0 47 -13q-21 -21 -21 -51q0 -55 76 -55q41 0 63.5 16t22.5 43q0 19 -22 39t-48.5 37t-48.5 50.5t-22 76.5q0 57 47 100q-194 9 -303 130t-109 333q0 160 76 280.5t200 181t275 60.5q47 0 100 -9.5t106 -29t87.5 -55.5
t34.5 -82q0 -51 -42.5 -76.5t-99.5 -25.5q-45 0 -73 20z" />
    <glyph glyph-name="egrave" unicode="&#xe8;" horiz-adv-x="972" 
d="M309 631l383 18q2 14 2 37q0 28 -5 53.5t-18.5 56.5t-45 49.5t-78.5 18.5q-90 0 -156.5 -64t-81.5 -169zM932 600l-47 -47h-586q-4 -37 -4 -74q0 -71 19.5 -133t60 -113.5t110.5 -81.5t162 -30q124 0 232 33l28 -54q-157 -133 -403 -133q-199 0 -326 127t-127 338
q0 150 72 270.5t193 186t266 65.5q175 0 262.5 -96.5t87.5 -257.5zM354 1356q0 31 19.5 52.5t52.5 25.5l354 -347l-12 -43q-44 11 -111 42t-136 73.5t-118 96t-49 100.5z" />
    <glyph glyph-name="eacute" unicode="&#xe9;" horiz-adv-x="972" 
d="M309 631l383 18q2 14 2 37q0 28 -5 53.5t-18.5 56.5t-45 49.5t-78.5 18.5q-90 0 -156.5 -64t-81.5 -169zM932 600l-47 -47h-586q-4 -37 -4 -74q0 -71 19.5 -133t60 -113.5t110.5 -81.5t162 -30q124 0 232 33l28 -54q-157 -133 -403 -133q-199 0 -326 127t-127 338
q0 150 72 270.5t193 186t266 65.5q175 0 262.5 -96.5t87.5 -257.5zM860 1356q0 -47 -49 -100.5t-118 -96t-136 -73.5t-111 -42l-12 43l354 347q33 -4 52.5 -25.5t19.5 -52.5z" />
    <glyph glyph-name="ecircumflex" unicode="&#xea;" horiz-adv-x="972" 
d="M309 631l383 18q2 14 2 37q0 28 -5 53.5t-18.5 56.5t-45 49.5t-78.5 18.5q-90 0 -156.5 -64t-81.5 -169zM932 600l-47 -47h-586q-4 -37 -4 -74q0 -71 19.5 -133t60 -113.5t110.5 -81.5t162 -30q124 0 232 33l28 -54q-157 -133 -403 -133q-199 0 -326 127t-127 338
q0 150 72 270.5t193 186t266 65.5q175 0 262.5 -96.5t87.5 -257.5zM205 1065l350 369l340 -347q0 -30 -18.5 -53.5t-59.5 -23.5q-45 0 -90.5 33.5t-80 84.5t-58.5 101.5t-37 93.5l-213 -313z" />
    <glyph glyph-name="edieresis" unicode="&#xeb;" horiz-adv-x="972" 
d="M309 631l383 18q2 14 2 37q0 28 -5 53.5t-18.5 56.5t-45 49.5t-78.5 18.5q-90 0 -156.5 -64t-81.5 -169zM932 600l-47 -47h-586q-4 -37 -4 -74q0 -71 19.5 -133t60 -113.5t110.5 -81.5t162 -30q124 0 232 33l28 -54q-157 -133 -403 -133q-199 0 -326 127t-127 338
q0 150 72 270.5t193 186t266 65.5q175 0 262.5 -96.5t87.5 -257.5zM229 1188q0 55 35.5 91t89.5 36q56 0 91.5 -35.5t35.5 -91.5q0 -54 -36 -89.5t-91 -35.5q-54 0 -89.5 35.5t-35.5 89.5zM618 1188q0 55 35.5 91t89.5 36q55 0 91 -35.5t36 -91.5q0 -54 -36 -89.5t-91 -35.5
q-54 0 -89.5 35.5t-35.5 89.5z" />
    <glyph glyph-name="igrave" unicode="&#xec;" horiz-adv-x="675" 
d="M471 952v-768q0 -56 15.5 -78t54.5 -28l61 -10v-68q-127 6 -260 6l-266 -6v68l41 6q51 8 79.5 40.5t28.5 86.5v475q0 60 -31.5 86t-101.5 26l-16 62q88 8 186.5 33.5t153.5 46.5zM121 1356q0 31 19.5 52.5t52.5 25.5l354 -347l-12 -43q-44 11 -111 42t-136 73.5t-118 96
t-49 100.5z" />
    <glyph glyph-name="iacute" unicode="&#xed;" horiz-adv-x="675" 
d="M471 952v-768q0 -56 15.5 -78t54.5 -28l61 -10v-68q-127 6 -260 6l-266 -6v68l41 6q51 8 79.5 40.5t28.5 86.5v475q0 60 -31.5 86t-101.5 26l-16 62q88 8 186.5 33.5t153.5 46.5zM545 1356q0 -47 -49 -100.5t-118 -96t-136 -73.5t-111 -42l-12 43l354 347
q33 -4 52.5 -25.5t19.5 -52.5z" />
    <glyph glyph-name="icircumflex" unicode="&#xee;" horiz-adv-x="675" 
d="M471 952v-768q0 -56 15.5 -78t54.5 -28l61 -10v-68q-127 6 -260 6l-266 -6v68l41 6q51 8 79.5 40.5t28.5 86.5v475q0 60 -31.5 86t-101.5 26l-16 62q88 8 186.5 33.5t153.5 46.5zM-10 1065l350 369l340 -347q0 -30 -18.5 -53.5t-59.5 -23.5q-45 0 -90.5 33.5t-80 84.5
t-58.5 101.5t-37 93.5l-213 -313z" />
    <glyph glyph-name="idieresis" unicode="&#xef;" horiz-adv-x="675" 
d="M471 952v-768q0 -56 15.5 -78t54.5 -28l61 -10v-68q-127 6 -260 6l-266 -6v68l41 6q51 8 79.5 40.5t28.5 86.5v475q0 60 -31.5 86t-101.5 26l-16 62q88 8 186.5 33.5t153.5 46.5zM23 1188q0 55 35 91t89 36q55 0 91 -35.5t36 -91.5q0 -54 -36 -89.5t-91 -35.5
q-54 0 -89 35.5t-35 89.5zM412 1188q0 55 35.5 91t89.5 36q55 0 91 -35.5t36 -91.5q0 -54 -36 -89.5t-91 -35.5q-54 0 -89.5 35.5t-35.5 89.5z" />
    <glyph glyph-name="eth" unicode="&#xf0;" 
d="M539 -33q-215 0 -351.5 130.5t-136.5 334.5q0 143 64 260.5t191 189.5t296 72q149 0 238 -75q-8 99 -36.5 191.5t-72.5 154.5l-209 -97l-45 93l189 84q-62 75 -172 123.5t-205 48.5l61 79q118 -1 245.5 -57t207.5 -137l227 104l45 -92l-207 -94q62 -79 106.5 -174
t68 -193.5t34 -190t10.5 -185.5q0 -117 -37.5 -220.5t-106 -181t-173.5 -123t-231 -45.5zM547 858q-56 0 -100.5 -32.5t-71 -87t-40 -120.5t-13.5 -139q0 -101 33 -195.5t96 -157.5t141 -63q57 0 101.5 32t71.5 86.5t40.5 121t13.5 139.5q0 101 -33 195.5t-96.5 157.5
t-142.5 63z" />
    <glyph glyph-name="ntilde" unicode="&#xf1;" horiz-adv-x="1232" 
d="M1059 682v-498q0 -56 16 -78t53 -28l64 -10v-68q-129 6 -260 6q-62 0 -123.5 -1.5t-92.5 -2.5l-30 -2v68l27 6q48 9 74 42t26 85v444q0 154 -151 154q-43 0 -116.5 -37t-96.5 -39v-539q0 -56 16 -78t53 -28l64 -10v-68q-129 6 -260 6l-269 -6v68l43 6q50 8 79.5 41
t29.5 86v475q0 59 -32.5 85.5t-100.5 26.5l-19 62q88 8 187 33.5t154 46.5l55 22v-149q26 4 64.5 29t74 51.5t91.5 48.5t114 22q128 0 197 -74t69 -198zM487 1176q-46 0 -80 -29.5t-49 -83.5l-43 43q15 91 64.5 151t130.5 60q42 0 84 -16t71 -35.5t69.5 -35.5t80.5 -16
q46 0 80 29.5t49 83.5l43 -43q-15 -91 -64 -151t-130 -60q-42 0 -84 16t-71 35.5t-70 35.5t-81 16z" />
    <glyph glyph-name="ograve" unicode="&#xf2;" 
d="M547 858q-56 0 -100.5 -32.5t-71 -87t-40 -120.5t-13.5 -139q0 -101 33 -195.5t96 -157.5t141 -63q57 0 101.5 32t71.5 86.5t40.5 121t13.5 139.5q0 101 -33 195.5t-96.5 157.5t-142.5 63zM539 -33q-215 0 -351.5 130.5t-136.5 334.5q0 143 64 260.5t191 189.5t296 72
q215 0 350 -130t135 -335q0 -106 -37.5 -201t-106 -166.5t-173.5 -113t-231 -41.5zM410 1356q0 31 19 52.5t52 25.5l355 -347l-13 -43q-44 11 -111 42t-136 73.5t-117.5 96t-48.5 100.5z" />
    <glyph glyph-name="oacute" unicode="&#xf3;" 
d="M547 858q-56 0 -100.5 -32.5t-71 -87t-40 -120.5t-13.5 -139q0 -101 33 -195.5t96 -157.5t141 -63q57 0 101.5 32t71.5 86.5t40.5 121t13.5 139.5q0 101 -33 195.5t-96.5 157.5t-142.5 63zM539 -33q-215 0 -351.5 130.5t-136.5 334.5q0 143 64 260.5t191 189.5t296 72
q215 0 350 -130t135 -335q0 -106 -37.5 -201t-106 -166.5t-173.5 -113t-231 -41.5zM860 1356q0 -47 -49 -100.5t-118 -96t-136 -73.5t-111 -42l-12 43l354 347q33 -4 52.5 -25.5t19.5 -52.5z" />
    <glyph glyph-name="ocircumflex" unicode="&#xf4;" 
d="M547 858q-56 0 -100.5 -32.5t-71 -87t-40 -120.5t-13.5 -139q0 -101 33 -195.5t96 -157.5t141 -63q57 0 101.5 32t71.5 86.5t40.5 121t13.5 139.5q0 101 -33 195.5t-96.5 157.5t-142.5 63zM539 -33q-215 0 -351.5 130.5t-136.5 334.5q0 143 64 260.5t191 189.5t296 72
q215 0 350 -130t135 -335q0 -106 -37.5 -201t-106 -166.5t-173.5 -113t-231 -41.5zM246 1065l350 369l340 -347q0 -30 -18.5 -53.5t-59.5 -23.5q-45 0 -90.5 33.5t-80 84.5t-58.5 101.5t-37 93.5l-213 -313z" />
    <glyph glyph-name="otilde" unicode="&#xf5;" 
d="M547 858q-56 0 -100.5 -32.5t-71 -87t-40 -120.5t-13.5 -139q0 -101 33 -195.5t96 -157.5t141 -63q57 0 101.5 32t71.5 86.5t40.5 121t13.5 139.5q0 101 -33 195.5t-96.5 157.5t-142.5 63zM539 -33q-215 0 -351.5 130.5t-136.5 334.5q0 143 64 260.5t191 189.5t296 72
q215 0 350 -130t135 -335q0 -106 -37.5 -201t-106 -166.5t-173.5 -113t-231 -41.5zM406 1176q-46 0 -80.5 -29.5t-49.5 -83.5l-43 43q15 91 64.5 151t130.5 60q42 0 84 -16t71 -35.5t69.5 -35.5t80.5 -16q46 0 80 29.5t49 83.5l43 -43q-15 -91 -64 -151t-130 -60
q-42 0 -84 16t-71 35.5t-69.5 35.5t-80.5 16z" />
    <glyph glyph-name="odieresis" unicode="&#xf6;" 
d="M547 858q-56 0 -100.5 -32.5t-71 -87t-40 -120.5t-13.5 -139q0 -101 33 -195.5t96 -157.5t141 -63q57 0 101.5 32t71.5 86.5t40.5 121t13.5 139.5q0 101 -33 195.5t-96.5 157.5t-142.5 63zM539 -33q-215 0 -351.5 130.5t-136.5 334.5q0 143 64 260.5t191 189.5t296 72
q215 0 350 -130t135 -335q0 -106 -37.5 -201t-106 -166.5t-173.5 -113t-231 -41.5zM264 1188q0 55 35.5 91t89.5 36q55 0 91 -35.5t36 -91.5q0 -54 -36 -89.5t-91 -35.5q-54 0 -89.5 35.5t-35.5 89.5zM653 1188q0 55 35.5 91t89.5 36q56 0 91.5 -35.5t35.5 -91.5
q0 -54 -36 -89.5t-91 -35.5q-54 0 -89.5 35.5t-35.5 89.5z" />
    <glyph glyph-name="divide" unicode="&#xf7;" horiz-adv-x="933" 
d="M920 360h-904v183h904v-183zM313 121q0 64 44.5 108.5t109.5 44.5t109.5 -44.5t44.5 -108.5q0 -65 -44.5 -109.5t-109.5 -44.5t-109.5 44.5t-44.5 109.5zM313 782q0 64 44.5 109t109.5 45t109.5 -45t44.5 -109t-44.5 -108.5t-109.5 -44.5t-109.5 44.5t-44.5 108.5z" />
    <glyph glyph-name="oslash" unicode="&#xf8;" 
d="M539 -33q-147 0 -263 64l-53 -64h-194q59 60 141 148q-119 125 -119 317q0 143 64 260.5t191 189.5t296 72q143 0 256 -61l55 59h197q-61 -59 -143 -143q120 -126 120 -320q0 -106 -37.5 -201t-106 -166.5t-173.5 -113t-231 -41.5zM621 432l-218 -250q78 -119 189 -119
q57 0 101.5 32t71.5 86.5t40.5 121t13.5 139.5q0 79 -28 179q-79 -84 -170 -189zM547 858q-56 0 -100.5 -32.5t-71 -87t-40 -120.5t-13.5 -139q0 -91 24 -170q67 72 168 193q134 151 213 246q-73 110 -180 110z" />
    <glyph glyph-name="ugrave" unicode="&#xf9;" horiz-adv-x="1198" 
d="M1024 922v-680q0 -58 32 -84.5t101 -26.5l17 -61q-88 -9 -183.5 -34.5t-147.5 -47.5l-52 -21l-11 150q-26 -6 -64.5 -31t-73.5 -51t-90 -47t-112 -21q-128 0 -197 74t-69 199v485q0 59 -29.5 87t-101.5 28v67l358 33l19 -18v-646q0 -153 162 -153q37 0 75 16.5t71 36
t52 23.5v512q0 64 -28 96.5t-105 32.5v67l361 33zM414 1356q0 31 19 52.5t52 25.5l355 -347l-13 -43q-44 11 -111 42t-136 73.5t-117.5 96t-48.5 100.5z" />
    <glyph glyph-name="uacute" unicode="&#xfa;" horiz-adv-x="1198" 
d="M1024 922v-680q0 -58 32 -84.5t101 -26.5l17 -61q-88 -9 -183.5 -34.5t-147.5 -47.5l-52 -21l-11 150q-26 -6 -64.5 -31t-73.5 -51t-90 -47t-112 -21q-128 0 -197 74t-69 199v485q0 59 -29.5 87t-101.5 28v67l358 33l19 -18v-646q0 -153 162 -153q37 0 75 16.5t71 36
t52 23.5v512q0 64 -28 96.5t-105 32.5v67l361 33zM936 1356q0 -47 -49 -100.5t-118 -96t-136 -73.5t-111 -42l-12 43l354 347q33 -4 52.5 -25.5t19.5 -52.5z" />
    <glyph glyph-name="ucircumflex" unicode="&#xfb;" horiz-adv-x="1198" 
d="M1024 922v-680q0 -58 32 -84.5t101 -26.5l17 -61q-88 -9 -183.5 -34.5t-147.5 -47.5l-52 -21l-11 150q-26 -6 -64.5 -31t-73.5 -51t-90 -47t-112 -21q-128 0 -197 74t-69 199v485q0 59 -29.5 87t-101.5 28v67l358 33l19 -18v-646q0 -153 162 -153q37 0 75 16.5t71 36
t52 23.5v512q0 64 -28 96.5t-105 32.5v67l361 33zM270 1065l351 369l340 -347q0 -30 -18.5 -53.5t-59.5 -23.5q-45 0 -91 33.5t-80 84.5t-58.5 101.5t-37.5 93.5l-213 -313z" />
    <glyph glyph-name="udieresis" unicode="&#xfc;" horiz-adv-x="1198" 
d="M1024 922v-680q0 -58 32 -84.5t101 -26.5l17 -61q-88 -9 -183.5 -34.5t-147.5 -47.5l-52 -21l-11 150q-26 -6 -64.5 -31t-73.5 -51t-90 -47t-112 -21q-128 0 -197 74t-69 199v485q0 59 -29.5 87t-101.5 28v67l358 33l19 -18v-646q0 -153 162 -153q37 0 75 16.5t71 36
t52 23.5v512q0 64 -28 96.5t-105 32.5v67l361 33zM279 1188q0 55 35 91t89 36q55 0 91 -35.5t36 -91.5q0 -54 -36 -89.5t-91 -35.5q-54 0 -89 35.5t-35 89.5zM668 1188q0 55 35.5 91t89.5 36q55 0 91 -35.5t36 -91.5q0 -54 -36 -89.5t-91 -35.5q-54 0 -89.5 35.5t-35.5 89.5
z" />
    <glyph glyph-name="yacute" unicode="&#xfd;" horiz-adv-x="1077" 
d="M406 -117l49 115l-285 731q-23 58 -45.5 82.5t-58.5 32.5l-43 10v68q127 -9 258 -9q59 0 119.5 2.5t91.5 4.5l30 2v-68l-41 -10q-35 -8 -52 -21t-17 -37q0 -6 10 -41l156 -471l180 433q24 63 24 86q0 38 -59 51l-43 10v68q102 -7 190 -7l185 7v-68l-43 -10
q-53 -11 -85.5 -47t-62.5 -105l-354 -835q-21 -50 -46 -93t-60.5 -84.5t-76.5 -70.5t-94.5 -46.5t-113.5 -17.5q-99 0 -147 40t-48 104q0 41 34 74.5t103 33.5q25 0 39 -2q-4 -20 -4 -31q0 -71 86 -71q150 0 224 190zM850 1356q0 -47 -49 -100.5t-118 -96t-136 -73.5
t-111 -42l-12 43l354 347q33 -4 52.5 -25.5t19.5 -52.5z" />
    <glyph glyph-name="thorn" unicode="&#xfe;" horiz-adv-x="1222" 
d="M459 1536v-702q25 6 58.5 26.5t63.5 40.5t81 36.5t110 16.5q110 0 202 -62.5t144.5 -169.5t52.5 -233q0 -106 -37.5 -201t-106 -166.5t-173.5 -113t-231 -41.5q-85 0 -164 15v-320q0 -48 23.5 -68.5t64.5 -27.5l63 -10v-68h-547v68l43 6q50 8 79.5 41.5t29.5 85.5v1571
q0 59 -32 84.5t-101 25.5l-19 64q88 8 187 33.5t154 46.5zM635 803q-31 0 -92.5 -25t-83.5 -28v-512q0 -86 52.5 -130.5t139.5 -44.5q113 0 182.5 107t69.5 272q0 161 -68 261t-200 100z" />
    <glyph glyph-name="ydieresis" unicode="&#xff;" horiz-adv-x="1077" 
d="M406 -117l49 115l-285 731q-23 58 -45.5 82.5t-58.5 32.5l-43 10v68q127 -9 258 -9q59 0 119.5 2.5t91.5 4.5l30 2v-68l-41 -10q-35 -8 -52 -21t-17 -37q0 -6 10 -41l156 -471l180 433q24 63 24 86q0 38 -59 51l-43 10v68q102 -7 190 -7l185 7v-68l-43 -10
q-53 -11 -85.5 -47t-62.5 -105l-354 -835q-21 -50 -46 -93t-60.5 -84.5t-76.5 -70.5t-94.5 -46.5t-113.5 -17.5q-99 0 -147 40t-48 104q0 41 34 74.5t103 33.5q25 0 39 -2q-4 -20 -4 -31q0 -71 86 -71q150 0 224 190zM246 1188q0 55 35.5 91t89.5 36q55 0 91 -35.5t36 -91.5
q0 -54 -36 -89.5t-91 -35.5q-54 0 -89.5 35.5t-35.5 89.5zM635 1188q0 55 35.5 91t89.5 36q56 0 91.5 -35.5t35.5 -91.5q0 -54 -36 -89.5t-91 -35.5q-54 0 -89.5 35.5t-35.5 89.5z" />
    <glyph glyph-name="dotlessi" unicode="&#x131;" horiz-adv-x="690" 
d="M496 952v-768q0 -56 15.5 -78t53.5 -28l62 -10v-68q-127 6 -260 6l-267 -6v68l41 6q52 8 80.5 41t28.5 86v475q0 60 -31.5 86t-101.5 26l-17 62q88 8 187 33.5t154 46.5z" />
    <glyph glyph-name="Lslash" unicode="&#x141;" horiz-adv-x="1148" 
d="M514 1161v-268l272 166l62 -105q-98 -50 -334 -184v-567q0 -36 14.5 -60.5t42 -36.5t57 -17t68.5 -5q137 0 222 69t126 183l68 -8l-55 -328q-459 8 -680 8q-72 0 -147 -2t-114 -4l-40 -2v74l49 10q131 26 131 188v344l-135 -81l-62 104q99 56 197 109v462
q0 76 -22.5 102.5t-92.5 37.5l-63 10v74q170 -9 315 -9q72 0 147 2.5t114 4.5l40 2v-74l-49 -10q-131 -26 -131 -189z" />
    <glyph glyph-name="lslash" unicode="&#x142;" horiz-adv-x="643" 
d="M469 1536v-627q53 32 102.5 64t72.5 49l24 16l65 -106q-133 -76 -264 -152v-596q0 -56 16 -78t54 -28l63 -10v-68q-129 6 -260 6l-268 -6v68l43 6q50 8 79 41t29 86v438l-108 -61l-66 106q74 35 174 86v490q0 59 -32 84.5t-101 25.5l-18 64q88 8 187 33.5t153 46.5z" />
    <glyph glyph-name="OE" unicode="&#x152;" horiz-adv-x="1925" 
d="M868 1462q128 0 240 -37h53l662 9v-314h-68q-15 111 -102 170.5t-244 59.5q-88 0 -127 -13v-557h131q73 0 119 39t57 107l15 94h73q-8 -104 -8 -262q0 -56 2 -116.5t4 -93.5l2 -32h-75l-13 62q-22 94 -149 94h-158v-455q0 -133 166 -133q147 0 228.5 60.5t125.5 191.5
l68 -8l-58 -328q-450 8 -667 8h-92q-128 -41 -279 -41q-145 0 -275 49.5t-227.5 139t-155 225.5t-57.5 299q0 121 33.5 235t102 213.5t163.5 174t226.5 117t283.5 42.5zM1024 242v936q0 94 -70.5 139t-175.5 45q-112 0 -196.5 -48.5t-135 -134.5t-75.5 -195.5t-25 -240.5
q0 -149 41.5 -276.5t112 -214t165 -135.5t199.5 -49q83 0 121.5 43t38.5 131z" />
    <glyph glyph-name="oe" unicode="&#x153;" horiz-adv-x="1765" 
d="M1724 600l-47 -47h-585q-5 -31 -5 -86q1 -69 21.5 -129t61 -109.5t110 -78.5t160.5 -29q123 0 231 33l29 -54q-157 -133 -404 -133q-110 0 -201 40.5t-151 115.5q-156 -156 -405 -156q-215 0 -351.5 130.5t-136.5 334.5q0 143 64 260.5t191 189.5t296 72q119 0 217.5 -42
t161.5 -119q74 77 176 119t217 42q175 0 262.5 -96.5t87.5 -257.5zM547 858q-56 0 -100.5 -32.5t-71 -87t-40 -120.5t-13.5 -139q0 -101 33 -195.5t96 -157.5t141 -63q57 0 101.5 32t71.5 86.5t40.5 121t13.5 139.5q0 101 -33 195.5t-96.5 157.5t-142.5 63zM1100 631l385 18
q2 14 2 37q0 22 -2.5 42t-11.5 46t-24 45t-43.5 32t-66.5 13q-90 0 -156 -64t-83 -169z" />
    <glyph glyph-name="Scaron" unicode="&#x160;" horiz-adv-x="1046" 
d="M526 1556l-350 369l133 55l213 -313q13 43 37 93.5t58.5 101.5t80 84.5t90.5 33.5q41 0 59.5 -23.5t18.5 -53.5zM932 1419l-21 -354h-67q-6 147 -86 221t-211 74q-97 0 -158 -56t-61 -139q0 -44 22 -85t59 -76t85 -69t101 -68.5t105.5 -71.5t100.5 -80.5t85 -91t59 -109
t22 -129.5q0 -183 -124 -300.5t-354 -117.5q-62 0 -218 33t-210 33v377h68q4 -69 24 -126.5t59 -106.5t106.5 -77t158.5 -28q120 0 188 64t68 171q0 60 -26.5 113t-70 92t-99.5 79.5t-114 75t-114 79t-99.5 91.5t-70 113t-26.5 142q0 167 128.5 268.5t336.5 101.5
q66 0 176 -21.5t178 -21.5z" />
    <glyph glyph-name="scaron" unicode="&#x161;" horiz-adv-x="831" 
d="M473 954q80 0 155 -18t124 -18l-15 -267h-69q0 92 -51.5 149.5t-147.5 57.5q-66 0 -103.5 -33.5t-37.5 -87.5q0 -38 24.5 -69.5t63.5 -55t86 -46.5t94 -51.5t86 -63t63.5 -88t24.5 -119.5q0 -142 -108 -209.5t-291 -67.5q-48 0 -140.5 21.5t-142.5 21.5l-10 285h72
q6 -114 70 -173t165 -59q79 0 126.5 36.5t47.5 90.5q0 49 -24 86.5t-62.5 62.5t-85 47.5t-93 48t-85 56.5t-62.5 81t-24 114q0 119 95 193.5t255 74.5zM418 1026l-350 369l133 55l213 -313q13 43 37 93.5t58.5 101.5t80 84.5t90.5 33.5q41 0 59.5 -24t18.5 -54z" />
    <glyph glyph-name="Ydieresis" unicode="&#x178;" horiz-adv-x="1503" 
d="M1200 1157l-315 -551v-383q0 -76 22 -102t92 -37l64 -10v-74q-170 8 -315 8q-72 0 -147.5 -2t-114.5 -4l-40 -2v74l50 10q131 26 131 188v320l-330 588q-83 143 -217 170l-47 10v74q114 -11 278 -11q83 0 162.5 2.5t117.5 5.5l38 3v-74l-33 -10q-55 -18 -55 -70
q0 -23 12 -47l278 -508l271 481q26 48 26 84q0 43 -61 60l-35 10v74q115 -9 242 -9q47 0 95 2.5t73 4.5l24 2v-74l-41 -10q-67 -16 -120 -59.5t-105 -133.5zM508 1698q0 55 35.5 91t89.5 36q55 0 91 -35.5t36 -91.5q0 -54 -36 -89.5t-91 -35.5q-54 0 -89.5 35.5t-35.5 89.5z
M897 1698q0 55 35.5 91t89.5 36q56 0 91.5 -35.5t35.5 -91.5q0 -54 -36 -89.5t-91 -35.5q-54 0 -89.5 35.5t-35.5 89.5z" />
    <glyph glyph-name="Zcaron" unicode="&#x17d;" horiz-adv-x="1300" 
d="M651 1556l-329 369l94 39l231 -313q10 30 35.5 77.5t61.5 102.5t81.5 94t85.5 39q34 0 52 -17t18 -36zM332 1434h907l27 -50l-875 -1280l350 5q108 1 192.5 25.5t147.5 72.5t109 110.5t86 149.5l59 -14l-114 -453h-1133l-20 37l874 1286l-362 -6q-155 -3 -249.5 -73.5
t-125.5 -199.5l-60 11l56 411h47q1 -4 4.5 -9t24.5 -14t55 -9z" />
    <glyph glyph-name="zcaron" unicode="&#x17e;" horiz-adv-x="968" 
d="M57 35l570 799l-232 -9q-94 -3 -155.5 -44.5t-94.5 -141.5l-57 4l51 303h56q1 -3 5 -8.5t24 -14t50 -8.5l625 7l14 -37q-49 -62 -196 -260t-269 -365l-122 -168l233 10q71 3 125 18.5t87.5 42.5t53.5 57t33 69l14 41l56 -11l-54 -319h-800zM449 1026l-351 369l133 55
l213 -313q13 43 37.5 93.5t58.5 101.5t80 84.5t91 33.5q41 0 59 -23.5t18 -54.5z" />
    <glyph glyph-name="florin" unicode="&#x192;" horiz-adv-x="1155" 
d="M1159 1012q0 -57 -46 -92t-107 -35q-51 0 -99 30q41 41 41 105q0 30 -19.5 48.5t-58.5 18.5q-174 0 -235 -290l-35 -164h246v-96h-268l-41 -207q-31 -152 -118 -268.5t-204.5 -176t-247.5 -59.5q-92 0 -143 30.5t-51 86.5q0 55 43 91t114 36q26 0 72 -11q-31 -43 -31 -82
q0 -25 17.5 -40t52.5 -15q86 0 147.5 74.5t87.5 208.5l66 336h-166l10 51q80 8 166 37l27 135q27 129 105.5 222.5t183 138t223.5 44.5q118 0 193 -43t75 -114z" />
    <glyph glyph-name="circumflex" unicode="&#x2c6;" horiz-adv-x="714" 
d="M12 1065l350 369l340 -347q0 -31 -18 -54t-59 -23q-45 0 -91 33.5t-80 84.5t-58.5 101.5t-37.5 93.5l-213 -313z" />
    <glyph glyph-name="caron" unicode="&#x2c7;" horiz-adv-x="714" 
d="M362 1026l-350 369l133 55l213 -313q13 43 37.5 93.5t58.5 101.5t80 84.5t91 33.5q41 0 59 -23.5t18 -54.5z" />
    <glyph glyph-name="breve" unicode="&#x2d8;" horiz-adv-x="692" 
d="M555 1450h98q0 -167 -81 -262.5t-226 -95.5q-141 0 -223 94.5t-82 263.5h156q0 -95 45 -149t129 -54q85 0 134.5 54.5t49.5 148.5z" />
    <glyph glyph-name="dotaccent" unicode="&#x2d9;" horiz-adv-x="569" 
d="M137 1266q0 60 43.5 102.5t104.5 42.5q60 0 102.5 -42.5t42.5 -102.5t-42.5 -104t-102.5 -44q-61 0 -104.5 44t-43.5 104z" />
    <glyph glyph-name="ring" unicode="&#x2da;" horiz-adv-x="591" 
d="M305 1143q52 0 77.5 32.5t25.5 86.5q0 59 -35.5 94t-85.5 35q-51 0 -77 -33t-26 -86q0 -59 36 -94t85 -35zM309 1462q78 0 132.5 -50.5t54.5 -135.5q0 -81 -59 -142t-154 -61q-78 0 -132.5 51.5t-54.5 137.5q0 80 59 140t154 60z" />
    <glyph glyph-name="ogonek" unicode="&#x2db;" horiz-adv-x="425" 
d="M393 -322q0 -34 -39.5 -62t-132.5 -28q-90 0 -140 36.5t-50 109.5q0 50 22.5 99.5t54.5 84.5t63.5 62.5t54.5 41.5l22 13l43 -35q-115 -115 -115 -227q0 -86 90 -86q54 0 88 41q39 -12 39 -50z" />
    <glyph glyph-name="tilde" unicode="&#x2dc;" horiz-adv-x="794" 
d="M233 1176q-46 0 -80 -29.5t-49 -83.5l-43 43q15 91 64.5 151t130.5 60q42 0 84 -16t71 -35.5t69.5 -35.5t80.5 -16q46 0 80 29.5t49 83.5l43 -43q-15 -91 -64 -151t-130 -60q-42 0 -84 16t-71 35.5t-70 35.5t-81 16z" />
    <glyph glyph-name="hungarumlaut" unicode="&#x2dd;" horiz-adv-x="901" 
d="M489 1356q0 -47 -48.5 -100.5t-117.5 -96t-136 -73.5t-111 -42l-13 43l355 347q33 -4 52 -25.5t19 -52.5zM838 1356q0 -47 -49 -100.5t-118 -96t-136 -73.5t-111 -42l-12 43l354 347q33 -4 52.5 -25.5t19.5 -52.5z" />
    <glyph glyph-name="uni03A9" unicode="&#x3a9;" horiz-adv-x="1705" 
d="M852 1462q122 0 230 -21.5t202 -68t162 -115t106.5 -167.5t38.5 -220q0 -86 -31 -166.5t-84.5 -150t-108.5 -128t-120 -128t-102 -121.5h223q92 0 135 45t60 129h67l-43 -350h-629q3 93 42 187.5t92 173t106 157.5t90 170.5t37 181.5q0 222 -126.5 357t-346.5 135
t-346.5 -135t-126.5 -357q0 -77 26.5 -155t66 -141t86.5 -134.5t87.5 -135.5t69 -144.5t30.5 -159.5h-628l-43 350h67q17 -84 60 -129t135 -45h223q-37 52 -102 121.5t-120 128t-108.5 128t-84.5 150t-31 166.5q0 121 38.5 220t106.5 167.5t162 115t202 68t230 21.5z" />
    <glyph glyph-name="pi" unicode="&#x3c0;" horiz-adv-x="1243" 
d="M772 748h-268q-6 -49 -11.5 -130.5t-10.5 -148t-14.5 -146t-26 -139t-41.5 -111t-65.5 -79t-94.5 -27.5q-46 0 -76.5 35t-30.5 84q199 129 250 662q-98 -3 -159 -44t-83 -141l-55 19q0 159 85 240t241 81h520q81 0 123 11.5t69 39.5l33 -14q-23 -106 -82.5 -147.5
t-189.5 -44.5q-51 -192 -51 -422q0 -100 20.5 -146.5t71.5 -46.5q97 0 184 119l47 -31q-58 -133 -134 -193.5t-179 -60.5q-39 0 -70 9.5t-51.5 24.5t-35 39t-22 46.5t-12 53.5t-5.5 53t-1 53q0 152 125 502z" />
    <glyph glyph-name="endash" unicode="&#x2013;" horiz-adv-x="1253" 
d="M1143 399h-1032v162h1032v-162z" />
    <glyph glyph-name="emdash" unicode="&#x2014;" horiz-adv-x="2269" 
d="M2159 399h-2048v162h2048v-162z" />
    <glyph glyph-name="quoteleft" unicode="&#x2018;" horiz-adv-x="532" 
d="M387 999q0 -63 -37.5 -105t-99.5 -42q-73 0 -118.5 57.5t-45.5 132.5q0 157 94 270.5t244 139.5l20 -49q-79 -31 -126.5 -90t-47.5 -127q0 -125 117 -187z" />
    <glyph glyph-name="quoteright" unicode="&#x2019;" horiz-adv-x="532" 
d="M145 1292q0 63 38 105.5t100 42.5q73 0 118 -58t45 -133q0 -157 -93.5 -270t-243.5 -139l-21 49q79 31 126.5 90t47.5 127q0 124 -117 186z" />
    <glyph glyph-name="quotesinglbase" unicode="&#x201a;" horiz-adv-x="571" 
d="M135 115q0 63 37.5 105t99.5 42q73 0 118.5 -57.5t45.5 -132.5q0 -157 -94 -270.5t-244 -139.5l-20 49q79 31 126.5 90t47.5 127q0 125 -117 187z" />
    <glyph glyph-name="quotedblleft" unicode="&#x201c;" horiz-adv-x="917" 
d="M387 999q0 -63 -37.5 -105t-99.5 -42q-73 0 -118.5 57.5t-45.5 132.5q0 157 94 270.5t244 139.5l20 -49q-79 -31 -126.5 -90t-47.5 -127q0 -125 117 -187zM772 999q0 -63 -37.5 -105t-99.5 -42q-73 0 -118.5 57.5t-45.5 132.5q0 157 94 270.5t244 139.5l20 -49
q-79 -31 -126.5 -90t-47.5 -127q0 -125 117 -187z" />
    <glyph glyph-name="quotedblright" unicode="&#x201d;" horiz-adv-x="917" 
d="M530 1292q0 63 38 105.5t100 42.5q73 0 118 -58t45 -133q0 -157 -93.5 -270t-243.5 -139l-21 49q79 31 126.5 90t47.5 127q0 124 -117 186zM145 1292q0 63 38 105.5t100 42.5q73 0 118 -58t45 -133q0 -157 -93.5 -270t-243.5 -139l-21 49q79 31 126.5 90t47.5 127
q0 124 -117 186z" />
    <glyph glyph-name="quotedblbase" unicode="&#x201e;" horiz-adv-x="980" 
d="M135 115q0 63 37.5 105t99.5 42q73 0 118.5 -57.5t45.5 -132.5q0 -157 -94 -270.5t-244 -139.5l-20 49q79 31 126.5 90t47.5 127q0 125 -117 187zM545 115q0 63 37.5 105t99.5 42q73 0 118.5 -57.5t45.5 -132.5q0 -157 -94 -270.5t-244 -139.5l-21 49q79 31 127 90
t48 127q0 125 -117 187z" />
    <glyph glyph-name="dagger" unicode="&#x2020;" horiz-adv-x="1243" 
d="M621 1462q68 0 102.5 -43.5t34.5 -115.5q0 -70 -44.5 -202t-47.5 -202q55 0 162 31t165 31q56 0 99 -23t43 -74q0 -39 -26 -62.5t-55 -29.5t-63 -6q-56 0 -163 32t-164 33q-7 -63 -7 -104q0 -132 113 -283q-5 -5 -12 -14.5t-26.5 -40t-34 -61.5t-26.5 -75.5t-12 -86.5
v-559h-77v559q0 67 -28 136.5t-56 105.5l-27 36q113 151 113 283l-6 104q-57 -1 -164.5 -33t-163.5 -32q-34 0 -63 6t-55 29.5t-26 62.5q0 51 43 74t99 23q58 0 165 -31t162 -31q-3 70 -47.5 202t-44.5 202q0 72 35 115.5t103 43.5z" />
    <glyph glyph-name="daggerdbl" unicode="&#x2021;" horiz-adv-x="1241" 
d="M618 -401q-69 0 -103 43t-34 116q0 70 44.5 202t47.5 202q-55 0 -162 -31t-165 -31q-56 0 -99 23t-43 74q0 39 26 62.5t55 29.5t63 6q55 0 162 -33t165 -33q0 184 -106 301q106 117 106 301q-58 0 -165 -32.5t-162 -32.5q-34 0 -63 6t-55 29.5t-26 62.5q0 51 43 74t99 23
q58 0 165 -31t162 -31q-3 70 -47.5 202t-44.5 202q0 73 34 116t103 43q71 0 105.5 -43t34.5 -116q0 -70 -44.5 -202t-47.5 -202q55 0 162 31t165 31q56 0 99 -23t43 -74q0 -39 -26 -62.5t-55 -29.5t-63 -6q-55 0 -162 32.5t-165 32.5q0 -184 106 -301q-106 -117 -106 -301
q58 0 165 33t162 33q34 0 63 -6t55 -29.5t26 -62.5q0 -51 -43 -74t-99 -23q-58 0 -165 31t-162 31q3 -70 47.5 -202t44.5 -202q0 -73 -34.5 -116t-105.5 -43z" />
    <glyph glyph-name="bullet" unicode="&#x2022;" horiz-adv-x="1024" 
d="M154 451q0 149 104.5 253.5t253.5 104.5t253.5 -104.5t104.5 -253.5q0 -148 -104.5 -253.5t-253.5 -105.5t-253.5 105.5t-104.5 253.5z" />
    <glyph glyph-name="perthousand" unicode="&#x2030;" horiz-adv-x="2375" 
d="M737 635q65 108 162 274t161 279l64 112h197q-306 -471 -447 -700q-58 -96 -154.5 -258.5t-163.5 -277.5l-67 -115h-196q313 483 444 686zM416 754q65 0 100 61.5t35 163.5q0 117 -46 181.5t-118 64.5q-64 0 -99.5 -62t-35.5 -164q0 -117 46 -181t118 -64zM422 1317
q132 0 222.5 -85t90.5 -228q0 -139 -96 -240.5t-258 -101.5q-132 0 -222.5 85t-90.5 228q0 139 96 240.5t258 101.5zM1223 20q64 0 99.5 62t35.5 164q0 117 -46 181.5t-118 64.5q-64 0 -99.5 -62t-35.5 -164q0 -117 46 -181.5t118 -64.5zM1229 584q132 0 222.5 -85.5
t90.5 -228.5q0 -139 -96 -240.5t-258 -101.5q-132 0 -223 85.5t-91 228.5q0 139 96.5 240.5t258.5 101.5zM1989 20q64 0 99.5 62t35.5 164q0 117 -46 181.5t-118 64.5q-64 0 -99.5 -62t-35.5 -164q0 -117 46 -181.5t118 -64.5zM1995 584q132 0 222.5 -85.5t90.5 -228.5
q0 -139 -96 -240.5t-258 -101.5q-132 0 -223 85.5t-91 228.5q0 139 96.5 240.5t258.5 101.5z" />
    <glyph glyph-name="guilsinglleft" unicode="&#x2039;" horiz-adv-x="708" 
d="M139 485l355 443l67 -123l-285 -316q46 -28 93 -66t94 -86t76.5 -103t29.5 -103t-25 -74t-61 -26z" />
    <glyph glyph-name="guilsinglright" unicode="&#x203a;" horiz-adv-x="708" 
d="M569 473l-354 -442l-68 123l285 315q-46 28 -93 66t-94 86t-76.5 103t-29.5 103t25 74.5t61 26.5z" />
    <glyph glyph-name="fraction" unicode="&#x2044;" horiz-adv-x="1011" 
d="M848 1536h196q-297 -505 -471 -823l-397 -746h-196q274 484 456 805q71 125 174 316t170 320z" />
    <glyph glyph-name="Euro" unicode="&#x20ac;" horiz-adv-x="931" 
d="M715 696q12 25 12 54q0 44 -41 76t-139 32q-86 0 -140.5 -70t-76.5 -186l297 4v-108q-129 2 -305 2q-3 -13 -3 -33l3 -33l305 4v-108q-123 2 -291 2q52 -215 307 -215q123 0 219 35l27 -52q-84 -69 -168.5 -101t-222.5 -32q-184 0 -298.5 94.5t-140.5 268.5h-96v108
q37 -2 88 -2q0 42 2 62h-90v108q41 -2 113 -2q53 164 197 257t329 93q47 0 100 -9.5t106 -29t87.5 -55.5t34.5 -82q0 -51 -42.5 -76.5t-99.5 -25.5q-45 0 -73 20z" />
    <glyph glyph-name="trademark" unicode="&#x2122;" horiz-adv-x="1130" 
d="M416 1442h35l-9 -121l-28 2q0 74 -64 74h-51v-316q0 -12 6.5 -20t11.5 -9.5t17 -4.5l20 -5v-32q-63 2 -104 2l-111 -2v32l19 5q16 3 27.5 21t11.5 44v285h-41q-74 0 -86 -76l-25 4l6 117h33q7 -8 25 -8h282q7 0 13.5 2t9.5 4zM530 1120l21 238q2 15 -7 26.5t-26 14.5
l-22 4v31q88 -4 139 -4q0 -21 10 -44l121 -262l104 246q6 14 10 29t4 23l1 8l162 4v-31l-19 -4q-34 -7 -31 -43l23 -269q1 -20 9.5 -29t25.5 -11l30 -5v-32q-50 2 -124 2l-107 -2v32l18 5q44 10 39 61l-18 195l-123 -287l-39 -15l-135 304l-14 -207q-2 -24 4 -36t28 -15
l33 -5v-32q-36 2 -102 2l-86 -2v32l20 5q45 8 51 73z" />
    <glyph glyph-name="partialdiff" unicode="&#x2202;" horiz-adv-x="1075" 
d="M485 838q67 0 118.5 -22t99 -56.5t77.5 -46.5q13 71 13 239q0 200 -86 320.5t-234 120.5q-72 0 -131 -38.5t-90 -113.5q-38 2 -76.5 32t-38.5 77q0 46 28 81t72.5 53.5t90.5 27t92 8.5q139 0 255.5 -59.5t192 -157.5t117 -223t41.5 -259q0 -69 -7.5 -142.5t-26 -158
t-46 -162t-71.5 -150t-99 -125.5t-132 -84.5t-167 -31.5q-199 0 -313.5 105t-114.5 317q0 189 129.5 319t306.5 130zM535 743q-73 0 -127.5 -63.5t-79.5 -154t-25 -189.5q0 -44 8 -88.5t25 -88t49 -71t74 -27.5q58 0 105.5 40.5t77.5 97.5t55 140t38 145.5t26 136.5q1 5 1 8
q-26 10 -57 30.5t-53 38t-53.5 31.5t-63.5 14z" />
    <glyph glyph-name="Delta" unicode="&#x2206;" horiz-adv-x="1452" 
d="M1333 0h-1216l-49 84l606 1366l135 16l573 -1382zM250 137h856l-393 1073z" />
    <glyph glyph-name="product" unicode="&#x220f;" horiz-adv-x="1718" 
d="M1204 41v1251q0 37 -7.5 60t-25 32.5t-32 12t-41.5 2.5h-477q-27 0 -42 -2.5t-32 -12t-25 -32.5t-8 -60v-1300q0 -76 22.5 -102t92.5 -37l63 -11v-73q-170 8 -315 8q-72 0 -147.5 -2t-114.5 -4l-39 -2v73l49 11q131 26 131 188v1255q0 76 -22.5 102.5t-92.5 37.5l-63 10
v74q420 -7 792 -7q200 0 393 1.5t286 3.5l93 2v-74l-49 -10q-131 -26 -131 -189v-1255q0 -76 22.5 -102t92.5 -37l63 -11v-73q-170 8 -315 8q-72 0 -147.5 -2t-114.5 -4l-39 -2v73l49 11q131 26 131 188z" />
    <glyph glyph-name="summation" unicode="&#x2211;" horiz-adv-x="1339" 
d="M307 -129h543q165 0 240.5 60.5t101.5 189.5l68 -6v-355h-1162l-18 45l635 787l-637 878l18 46h1164v-355l-68 -6q-26 129 -101.5 189.5t-240.5 60.5h-444l534 -735z" />
    <glyph glyph-name="minus" unicode="&#x2212;" horiz-adv-x="935" 
d="M920 543v-185h-904v185h904z" />
    <glyph glyph-name="radical" unicode="&#x221a;" horiz-adv-x="1265" 
d="M659 0h-49l-407 889l-172 -55l-31 90l403 133l304 -715l450 1092h109z" />
    <glyph glyph-name="infinity" unicode="&#x221e;" horiz-adv-x="1638" 
d="M1208 131q-55 0 -107.5 16t-104 50t-87.5 63t-90 78q-52 -46 -90 -76t-90.5 -63.5t-104.5 -50.5t-104 -17q-137 0 -232.5 93.5t-95.5 240.5t95.5 240.5t232.5 93.5q56 0 108 -16t104 -50.5t87 -62.5t90 -78q53 47 90.5 77t89.5 63.5t104 50t105 16.5q137 0 232.5 -93.5
t95.5 -240.5t-95.5 -240.5t-232.5 -93.5zM698 463q-91 88 -149 127t-121 39q-71 0 -108 -51t-37 -113t37 -113t108 -51q64 0 123 38.5t147 123.5zM1210 629q-61 0 -118.5 -38.5t-149.5 -125.5q98 -88 155 -126t113 -38q71 0 108.5 51t37.5 113t-37.5 113t-108.5 51z" />
    <glyph glyph-name="integral" unicode="&#x222b;" horiz-adv-x="786" 
d="M291 508v590q0 288 72.5 429.5t205.5 141.5q83 0 124.5 -43t41.5 -98q0 -59 -41.5 -95t-99.5 -36q-28 0 -53 10q10 17 10 39q0 10 -8 19.5t-27 9.5q-25 0 -46 -24t-21 -71q0 -79 20 -251t20 -269v-590q0 -288 -72.5 -429.5t-205.5 -141.5q-83 0 -124.5 43t-41.5 98
q0 59 41.5 95t99.5 36q29 0 54 -10q-11 -18 -11 -39q0 -10 8 -19t27 -9q26 0 47 23.5t21 70.5q0 79 -20.5 251t-20.5 269z" />
    <glyph glyph-name="approxequal" unicode="&#x2248;" horiz-adv-x="1136" 
d="M373 666q60 0 119 -21t100 -47t95.5 -47t105.5 -21q132 0 194 129l64 -45q-12 -113 -93.5 -186.5t-207.5 -73.5q-56 0 -113 21t-96.5 46.5t-93 46.5t-103.5 21q-137 0 -197 -129l-63 46q14 108 94.5 184t194.5 76zM373 395q60 0 119 -21t100 -46.5t95.5 -46.5t105.5 -21
q132 0 194 129l64 -45q-12 -113 -93.5 -186.5t-207.5 -73.5q-56 0 -113 21t-96.5 46.5t-93 46.5t-103.5 21q-137 0 -197 -129l-63 45q14 108 94.5 184t194.5 76z" />
    <glyph glyph-name="notequal" unicode="&#x2260;" horiz-adv-x="935" 
d="M305 154h-289v184h351l71 229h-422v183h480l135 450h151q-75 -217 -153 -450h291v-183h-353l-73 -229h426v-184h-484l-133 -449h-151q75 218 153 449z" />
    <glyph glyph-name="lessequal" unicode="&#x2264;" horiz-adv-x="933" 
d="M14 0v184h904v-184h-904zM918 207l-904 291v149l904 289v-182l-664 -183l664 -182v-182z" />
    <glyph glyph-name="greaterequal" unicode="&#x2265;" horiz-adv-x="933" 
d="M918 184v-184h-904v184h904zM918 498l-904 -291v182l664 182l-664 183v182l904 -289v-149z" />
    <glyph glyph-name="lozenge" unicode="&#x25ca;" 
d="M57 743l428 805h138l430 -805l-430 -804h-138zM870 743l-317 590l-315 -590l315 -589z" />
    <glyph glyph-name="s_t" unicode="&#xfb06;" horiz-adv-x="1619" 
d="M969 1409q170 0 268 -77t98 -191q0 -75 -23 -132.5t-50 -86.5h290v-125h-290v-557q0 -129 135 -129q50 0 96.5 6t68.5 12l21 6l8 -61q-72 -51 -147.5 -79t-188.5 -28q-110 0 -174.5 66t-64.5 188v588h-133l-9 61q96 31 170 102.5t74 160.5q0 70 -55.5 113.5t-153.5 43.5
q-83 0 -163 -36t-128 -87q-24 -76 -24 -161q0 -44 2 -64q13 -2 44.5 -9.5t55.5 -11t56 -3.5l-15 -267h-69q0 92 -51.5 149.5t-147.5 57.5q-66 0 -103.5 -33.5t-37.5 -87.5q0 -38 24.5 -69.5t63.5 -55t86 -46.5t94 -51.5t86 -63t63.5 -88t24.5 -119.5q0 -142 -108 -209.5
t-291 -67.5q-48 0 -140.5 21.5t-142.5 21.5l-10 285h72q6 -114 70 -173t165 -59q79 0 126.5 36.5t47.5 90.5q0 49 -24 86.5t-62.5 62.5t-85 47.5t-93 48t-85 56.5t-62.5 81t-24 114q0 114 88 188t238 80q15 82 56 160.5t104 145.5t157 108t203 41z" />
    <glyph glyph-name="one.onum" horiz-adv-x="772" 
d="M502 631v-436q0 -53 33.5 -79t101.5 -32l78 -8v-76q-179 6 -322 6l-336 -6v76l62 8q162 19 162 188v428q0 101 -172 115l-41 4v76q161 0 327 23q75 10 141.5 30t95.5 34l30 15l34 -84l-69 -45q-65 -40 -95 -91.5t-30 -145.5z" />
    <glyph glyph-name="two.onum" horiz-adv-x="1122" 
d="M870 719q0 -62 -18 -114.5t-49.5 -97.5t-96.5 -99t-136 -103t-191 -125h346q95 0 175.5 60.5t103.5 138.5l57 -17l-125 -362h-860l-17 49l392 320q88 69 129 135.5t41 154.5q0 87 -46.5 139t-128.5 52q-68 0 -109.5 -35t-41.5 -84q0 -58 53 -90q-9 -32 -40 -52t-68 -20
q-52 0 -90.5 37t-38.5 107q0 81 63.5 145t155.5 95.5t188 31.5q154 0 253 -73.5t99 -192.5z" />
    <glyph glyph-name="three.onum" horiz-adv-x="952" 
d="M563 690q0 67 -46.5 112.5t-131.5 45.5q-74 0 -119 -34.5t-45 -82.5q0 -33 18 -54.5t40 -29.5q-23 -59 -91 -59q-51 0 -91 35.5t-40 93.5q0 107 117.5 187.5t288.5 80.5q153 0 250.5 -72.5t97.5 -185.5q0 -126 -82 -229.5t-237 -151.5l2 -8q195 0 298 -70t103 -209
q0 -97 -47.5 -177.5t-127.5 -135t-187.5 -92.5t-225.5 -55t-244 -17v78q168 0 299.5 42t210 127t78.5 202q0 111 -71 170t-197 59q-40 0 -79 -3t-58 -6l-19 -3l-18 76q7 2 20 5.5t49.5 18t70 32.5t74.5 49t70.5 66.5t49.5 86.5t20 108z" />
    <glyph glyph-name="four.onum" horiz-adv-x="1214" 
d="M1145 41h-264v-252q0 -41 32.5 -66t77.5 -32l58 -8v-76h-545v76l55 12q100 21 100 123v223h-581l-37 74l397 483q111 135 111 248q0 68 -39 121q44 49 106 49q52 0 94 -37t42 -100q0 -50 -16 -97.5t-51.5 -97.5t-66.5 -86t-86 -94l-282 -297h409v280l222 113v-393h264
v-166z" />
    <glyph glyph-name="five.onum" horiz-adv-x="1030" 
d="M911 1133l58 -15l-92 -350h-549l-33 -174q149 0 272 -56.5t198 -166.5t75 -254q0 -160 -82 -283t-218.5 -187.5t-303.5 -64.5q-127 0 -198 50t-71 118q0 49 35.5 79t81.5 30q45 0 76 -31q-21 -21 -21 -55q0 -43 32 -75t95 -32q79 0 142.5 31.5t102 84.5t59 117.5
t20.5 133.5q0 79 -28.5 142.5t-74 102.5t-106 65t-118.5 36t-118 10l125 565h432q73 0 122 43.5t87 135.5z" />
    <glyph glyph-name="six.onum" horiz-adv-x="1110" 
d="M350 526q-8 -41 -8 -106q0 -172 59.5 -261t167.5 -89q102 0 150.5 76.5t48.5 195.5q0 112 -52 186t-147 74q-56 0 -123.5 -35t-95.5 -41zM975 1368l29 -57q-119 -39 -222 -102t-175.5 -135.5t-127 -155.5t-84.5 -161.5t-41 -154.5q16 2 48.5 24t66.5 47t87 45.5t106 20.5
q153 0 255.5 -95t102.5 -259q0 -82 -29.5 -152t-78 -118t-110.5 -82t-126 -50t-125 -16q-104 0 -191.5 40t-145.5 106t-90 150.5t-32 174.5q0 120 30.5 230t82.5 197t122.5 163t150 132t166.5 99.5t169.5 69.5t161.5 39z" />
    <glyph glyph-name="seven.onum" horiz-adv-x="1120" 
d="M162 948h917l21 -35l-428 -567q-113 -150 -156 -252.5t-43 -220.5q0 -42 9.5 -81.5t22.5 -66t26 -47.5t23 -30l9 -10q-68 -62 -153 -62q-79 0 -134 53t-55 144q0 41 7.5 80.5t26.5 82.5t35 74.5t50.5 80.5t54.5 75.5t65.5 85t65.5 84.5l336 434l-465 -6q-53 -1 -98 -16.5
t-74 -38.5t-51.5 -52.5t-33.5 -53t-17 -44.5l-51 8z" />
    <glyph glyph-name="eight.onum" horiz-adv-x="1064" 
d="M319 276q0 -95 55 -156t140 -61q91 0 147 63.5t56 133.5q0 42 -12 81.5t-31.5 69.5t-42.5 56.5t-46.5 44.5t-43 31.5t-31.5 19.5l-12 6q-19 -24 -56.5 -62.5t-60.5 -64t-42.5 -69.5t-19.5 -93zM543 1245q-82 0 -133.5 -53.5t-51.5 -136.5q0 -87 48.5 -150t175.5 -143
q17 26 47 61.5t49.5 59.5t35 65t15.5 90q0 92 -48 149.5t-138 57.5zM950 1047q0 -63 -22 -116.5t-58 -90.5t-71.5 -64t-72.5 -51.5t-50 -38.5q12 -6 31.5 -18t69 -50t88 -77.5t69.5 -98t31 -114.5q0 -74 -29.5 -136.5t-76.5 -104t-107 -70t-120 -41.5t-116 -13
q-110 0 -204 35.5t-155 108t-61 169.5q0 71 35.5 132t78.5 95.5t100 77.5t81 70q-73 51 -115.5 85t-80.5 77.5t-54 90.5t-16 106q0 147 123 240t305 93q161 0 279 -83.5t118 -212.5z" />
    <glyph glyph-name="nine.onum" horiz-adv-x="1110" 
d="M762 426q6 41 6 106q0 172 -59 261.5t-166 89.5q-102 0 -151.5 -77t-49.5 -196q0 -112 52 -186t149 -74q56 0 123.5 35t95.5 41zM137 -420l-26 62q119 38 221 101t174 135.5t126.5 155.5t84.5 161.5t41 154.5q-17 -2 -49.5 -24t-66 -47t-86.5 -45.5t-107 -20.5
q-151 0 -254 95t-103 259q0 82 29.5 152t78 118t110 82t125 50t124.5 16q104 0 192 -40t146 -106t90.5 -150.5t32.5 -174.5q0 -166 -58 -312.5t-150 -249.5t-211 -183.5t-235.5 -125t-228.5 -63.5z" />
    <glyph glyph-name="zero.onum" horiz-adv-x="1210" 
d="M571 -33q-106 0 -197.5 31.5t-161.5 91t-110.5 153.5t-40.5 210q0 154 76.5 276.5t208 189t293.5 66.5q105 0 196.5 -31.5t162 -91t111 -153t40.5 -209.5q0 -154 -76.5 -276.5t-208 -189.5t-293.5 -67zM629 72q124 0 182.5 104.5t58.5 278.5q0 193 -86.5 309.5
t-203.5 116.5q-124 0 -183 -104.5t-59 -278.5q0 -193 87 -309.5t204 -116.5z" />
    <glyph glyph-name="hyphen.caps" horiz-adv-x="729" 
d="M668 768q0 -22 -9 -35l-567 -121l-35 50q89 68 234.5 132t267.5 64q47 0 78 -24t31 -66z" />
    <glyph glyph-name="endash.caps" horiz-adv-x="1253" 
d="M1143 657h-1032v162h1032v-162z" />
    <glyph glyph-name="emdash.caps" horiz-adv-x="2269" 
d="M2159 657h-2048v162h2048v-162z" />
    <glyph glyph-name="quotedblleft.smcp" horiz-adv-x="917" 
d="M387 879q0 -63 -37.5 -105.5t-99.5 -42.5q-73 0 -118.5 58t-45.5 133q0 157 94 270t244 139l20 -49q-79 -31 -126.5 -90t-47.5 -127q0 -124 117 -186zM772 879q0 -63 -37.5 -105.5t-99.5 -42.5q-73 0 -118.5 58t-45.5 133q0 157 94 270t244 139l20 -49
q-79 -31 -126.5 -90t-47.5 -127q0 -124 117 -186z" />
    <glyph glyph-name="quotedblright.smcp" horiz-adv-x="917" 
d="M530 1192q0 63 38 105t100 42q73 0 118 -57.5t45 -132.5q0 -158 -93.5 -271t-243.5 -139l-21 49q79 31 126.5 90.5t47.5 127.5q0 124 -117 186zM145 1192q0 63 38 105t100 42q73 0 118 -57.5t45 -132.5q0 -158 -93.5 -271t-243.5 -139l-21 49q79 31 126.5 90.5
t47.5 127.5q0 124 -117 186z" />
    <glyph glyph-name="quoteleft.smcp" horiz-adv-x="532" 
d="M387 879q0 -63 -37.5 -105.5t-99.5 -42.5q-73 0 -118.5 58t-45.5 133q0 157 94 270t244 139l20 -49q-79 -31 -126.5 -90t-47.5 -127q0 -124 117 -186z" />
    <glyph glyph-name="quoteright.smcp" horiz-adv-x="532" 
d="M145 1192q0 63 38 105t100 42q73 0 118 -57.5t45 -132.5q0 -158 -93.5 -271t-243.5 -139l-21 49q79 31 126.5 90.5t47.5 127.5q0 124 -117 186z" />
    <glyph glyph-name="guillemotleft.caps" horiz-adv-x="1032" 
d="M139 715l355 442l67 -123l-285 -315q45 -28 92.5 -66.5t94.5 -86.5t76.5 -103t29.5 -103t-25 -74t-61 -26zM500 715l323 401l64 -115l-258 -276q42 -26 83.5 -59.5t84.5 -77t69.5 -94.5t26.5 -97q0 -45 -23 -69.5t-57 -24.5z" />
    <glyph glyph-name="guillemotright.caps" horiz-adv-x="1032" 
d="M893 702l-354 -442l-68 123l285 315q-45 28 -92.5 66.5t-94.5 86.5t-76.5 103t-29.5 103t25 74t61 26zM532 702l-323 -401l-64 115l258 276q-42 26 -83.5 59.5t-84.5 77t-69.5 94.5t-26.5 97q0 45 23 69.5t57 24.5z" />
    <glyph glyph-name="guilsinglleft.caps" horiz-adv-x="696" 
d="M139 715l355 442l67 -123l-285 -315q45 -28 92.5 -66.5t94.5 -86.5t76.5 -103t29.5 -103t-25 -74t-61 -26z" />
    <glyph glyph-name="guilsinglright.caps" horiz-adv-x="696" 
d="M569 702l-354 -442l-68 123l285 315q-45 28 -92.5 66.5t-94.5 86.5t-76.5 103t-29.5 103t25 74t61 26z" />
    <glyph glyph-name="parenleft.caps" horiz-adv-x="696" 
d="M57 727q0 129 31 254.5t82 228.5t120.5 197t142 165t151.5 128l53 -51q-206 -206 -290.5 -429.5t-84.5 -492.5t84.5 -492.5t290.5 -429.5l-53 -51q-79 57 -151.5 128t-142 165t-120.5 197t-82 228.5t-31 254.5z" />
    <glyph glyph-name="parenright.caps" horiz-adv-x="706" 
d="M643 725q0 -160 -46 -312.5t-124 -275t-167 -217.5t-189 -168l-54 51q206 206 290.5 429.5t84.5 492.5t-84.5 492.5t-290.5 429.5l54 51q100 -73 189 -168t167 -217.5t124 -275t46 -312.5z" />
    <glyph glyph-name="bracketleft.caps" horiz-adv-x="765" 
d="M438 -57q38 0 72 -6t64.5 -19t48.5 -37t18 -57q0 -25 -16 -45t-35 -25q-129 105 -465 105v1704q335 0 465 106q19 -5 35 -25t16 -45q0 -43 -32.5 -71t-75.5 -37.5t-95 -9.5q-31 0 -65 2t-52 4l-18 2v-1555q65 9 135 9z" />
    <glyph glyph-name="bracketright.caps" horiz-adv-x="765" 
d="M328 -55q31 0 65 -2t52 -4l18 -2v1554q-65 -8 -135 -8q-38 0 -72 6t-64.5 19t-48.5 37t-18 57q0 25 16 44.5t35 24.5q130 -106 465 -106v-1704q-336 0 -465 -105q-19 5 -35 25t-16 45q0 33 18 57t48.5 37t64.5 19t72 6z" />
    <glyph glyph-name="braceleft.caps" horiz-adv-x="737" 
d="M135 662h-55v77h55q158 0 158 187q0 70 -31 209.5t-31 216.5q0 80 27.5 141.5t71.5 95t92.5 50t97.5 16.5q68 0 101.5 -25t33.5 -57q0 -24 -18 -42.5t-45 -23.5q-6 21 -27 35t-49 14q-46 0 -79.5 -36t-33.5 -107q0 -90 14.5 -234.5t14.5 -228.5q0 -103 -53 -169t-123 -81
q70 -15 123 -80.5t53 -168.5q0 -84 -14.5 -228.5t-14.5 -234.5q0 -71 33.5 -107.5t79.5 -36.5q28 0 49 14.5t27 35.5q27 -5 45 -23.5t18 -42.5q0 -32 -33.5 -57t-101.5 -25q-49 0 -97.5 16.5t-92.5 50t-71.5 95t-27.5 141.5q0 77 31 216.5t31 209.5q0 187 -158 187z" />
    <glyph glyph-name="bar.caps" horiz-adv-x="452" 
d="M145 737l-12 1057h184q-12 -854 -12 -1057l12 -1056h-184q12 859 12 1056z" />
    <glyph glyph-name="braceright.caps" horiz-adv-x="737" 
d="M657 662h-55q-158 0 -158 -187q0 -70 31 -209.5t31 -216.5q0 -80 -27.5 -141.5t-71.5 -95t-92.5 -50t-97.5 -16.5q-68 0 -101.5 25t-33.5 57q0 24 18 42.5t45 23.5q6 -21 27 -35.5t49 -14.5q46 0 79.5 36.5t33.5 107.5q0 90 -14.5 234.5t-14.5 228.5q0 103 53 168.5
t123 80.5q-70 15 -123 81t-53 169q0 84 14.5 228.5t14.5 234.5q0 71 -33.5 107t-79.5 36q-28 0 -49 -14t-27 -35q-27 5 -45 23.5t-18 42.5q0 32 33.5 57t101.5 25q49 0 97.5 -16.5t92.5 -50t71.5 -95t27.5 -141.5q0 -77 -31 -216.5t-31 -209.5q0 -187 158 -187h55v-77z" />
    <glyph glyph-name="slash.caps" horiz-adv-x="841" 
d="M338 739q71 230 143 473.5t108 371.5l36 128h196q-163 -456 -323 -973q-60 -196 -130.5 -439t-111.5 -388l-41 -145h-197q185 535 320 972z" />
    <glyph glyph-name="backslash.caps" horiz-adv-x="841" 
d="M502 739q60 -195 140 -438t130 -389l49 -145h-196q-148 533 -283 972q-71 230 -152 473.5t-126 371.5l-46 128h197q127 -456 287 -973z" />
    <glyph glyph-name="exclamdown.caps" horiz-adv-x="565" 
d="M135 1315q0 62 42.5 104.5t105.5 42.5q61 0 104 -43t43 -104q0 -62 -43 -105t-104 -43q-63 0 -105.5 43t-42.5 105zM238 1044h90q-4 -35 -4 -94q0 -127 28.5 -273t57 -287t28.5 -255q0 -76 -45 -122t-110 -46t-110.5 46t-45.5 122q0 92 18 201.5t39.5 196t39.5 201.5
t18 216z" />
    <glyph glyph-name="questiondown.caps" horiz-adv-x="905" 
d="M506 -33q-105 0 -198.5 44.5t-151.5 124.5t-58 177q0 69 21 128t55 102t75 81.5t82.5 74.5t75.5 72t55 82.5t21 98.5q0 54 -18 92h59q50 -59 72 -114t22 -135q0 -73 -35.5 -139.5t-86 -117.5t-101 -99.5t-86 -104.5t-35.5 -113q0 -52 59.5 -92.5t143.5 -40.5
q137 0 137 102q0 14 -2.5 28t-5.5 21l-2 7q29 10 70 10q57 0 95 -33t38 -80q0 -81 -82 -128.5t-219 -47.5zM643 1315q0 -62 -42 -105t-105 -43q-62 0 -105 43.5t-43 104.5t43 104t105 43q63 0 105 -42.5t42 -104.5z" />
    <glyph glyph-name="periodcentered.caps" horiz-adv-x="423" 
d="M66 731q0 62 42 105t105 43q61 0 104 -43t43 -105q0 -61 -43 -104t-104 -43q-63 0 -105 42.5t-42 104.5z" />
    <glyph glyph-name="bullet.caps" horiz-adv-x="1024" 
d="M154 729q0 149 104.5 253.5t253.5 104.5t253.5 -104.5t104.5 -253.5q0 -148 -104.5 -253t-253.5 -105t-253.5 105t-104.5 253z" />
    <glyph glyph-name="c_t" horiz-adv-x="1763" 
d="M715 696q12 25 12 54q0 44 -41 76t-139 32q-73 0 -125 -53t-76 -137t-24 -189q0 -192 81 -277t240 -85q123 0 219 35l27 -52q-84 -69 -168.5 -101t-222.5 -32q-209 0 -328 122t-119 343q0 119 43.5 218t117.5 164.5t172 101.5t208 38q15 82 56 160.5t104 145.5t157 108
t203 41q171 0 269 -77t98 -191q0 -75 -23.5 -132.5t-50.5 -86.5h291v-125h-291v-557q0 -129 135 -129q50 0 96.5 6t67.5 12l22 6l9 -61q-72 -51 -147.5 -79t-188.5 -28q-110 0 -175 66t-65 188v588h-133l-8 61q96 31 170 102.5t74 160.5q0 70 -55.5 113.5t-153.5 43.5
q-83 0 -163 -36t-128 -87q-25 -79 -25 -161q0 -47 2 -70q82 -20 136.5 -59t54.5 -99q0 -51 -42.5 -76.5t-99.5 -25.5q-45 0 -73 20z" />
    <glyph glyph-name="ornament.A" horiz-adv-x="1714" 
d="M1040 1110q-118 -259 -118 -528q0 -251 116 -443l13 4q-25 46 -51.5 162t-26.5 234q0 84 15 153t49.5 130t99 95.5t155.5 34.5q98 0 168 -57.5t70 -153.5q0 -58 -21.5 -104.5t-55.5 -78t-75 -59t-82.5 -53t-75.5 -53t-55.5 -67.5t-21.5 -88q0 -68 43 -129.5t112 -61.5
q66 0 100 30t34 73q0 40 -19.5 71.5t-56.5 44.5q38 80 121 80q55 0 87.5 -36.5t32.5 -86.5q0 -70 -38 -121.5t-104 -80t-140.5 -41.5t-159.5 -13q-148 0 -289 55t-249 150t-174 235.5t-66 299.5q0 139 82 238t219 99q131 0 221 -90q22 82 70 183q-128 51 -227 76.5
t-214 25.5q-148 0 -228.5 -71.5t-80.5 -192.5q0 -88 51 -184q-3 -6 -9 -16t-31.5 -26t-59.5 -16q-52 0 -83.5 42.5t-31.5 109.5q0 193 135.5 311.5t337.5 118.5q195 0 471 -115q62 114 158 188t225 74q109 0 194 -57t85 -156q0 -58 -29.5 -101t-78 -66t-101.5 -33.5
t-109 -10.5q-116 0 -303 72zM1368 1382q-174 0 -297 -208q149 -58 272 -58q47 0 90 11t77 42.5t34 79.5q0 59 -49.5 96t-126.5 37z" />
    <glyph glyph-name="ornament.B" horiz-adv-x="1640" 
d="M1411 715q58 -28 104 -97t46 -141q0 -98 -57 -176.5t-152 -128.5q-41 -89 -120.5 -147t-178.5 -58q-69 0 -129.5 32t-104.5 89q-42 -56 -102.5 -88.5t-128.5 -32.5q-99 0 -178.5 58t-120.5 147q-95 50 -152 128.5t-57 176.5q0 72 45.5 141t103.5 97q-58 28 -103.5 96.5
t-45.5 140.5q0 98 57 176.5t152 128.5q41 89 120.5 147t178.5 58q68 0 128.5 -32.5t102.5 -88.5q44 57 104.5 89t129.5 32q99 0 178.5 -58t120.5 -147q95 -50 152 -128.5t57 -176.5q0 -72 -46 -140.5t-104 -96.5zM588 1352q80 0 138 -69t58 -153q0 -37 -18 -113t-18 -120
q0 -66 18 -125q-69 21 -129 21q-39 0 -113 -17.5t-116 -17.5q-80 0 -149 56.5t-69 137.5q0 86 51.5 141.5t125.5 82.5q74 176 221 176zM825 797h-8q-16 58 -16 100q0 43 18 113q21 -65 21 -113q0 -46 -15 -100zM735 721v-10q-63 -15 -98 -15q-46 0 -115 21q70 18 115 18
q40 0 98 -14zM1053 1352q147 0 221 -176q74 -27 125 -82.5t51 -141.5q0 -81 -68.5 -137.5t-148.5 -56.5q-43 0 -117.5 17.5t-111.5 17.5q-63 0 -132 -21q21 58 21 125q0 44 -18.5 120t-18.5 113q0 85 58 153.5t139 68.5zM588 78q-147 0 -221 176q-75 28 -126 82.5t-51 140.5
q0 81 69 138t149 57q42 0 116 -17.5t113 -17.5q63 0 129 20q-18 -59 -18 -125q0 -44 18 -120t18 -113q0 -84 -58 -152.5t-138 -68.5zM817 633h8q15 -54 15 -101t-21 -112q-18 70 -18 112q0 43 16 101zM1317 715q82 32 135 95.5t53 141.5q0 92 -54.5 157.5t-137.5 104.5
q-41 96 -110 144.5t-150 48.5q-77 0 -142 -50.5t-92 -123.5q-26 73 -90 123.5t-141 50.5q-81 0 -150 -48.5t-110 -144.5q-84 -38 -138.5 -104t-54.5 -158q0 -78 53.5 -141.5t135.5 -95.5q-82 -32 -135.5 -96t-53.5 -142q0 -92 54.5 -158t138.5 -104q41 -96 109.5 -144
t150.5 -48q77 0 141 50.5t90 123.5q27 -73 92 -123.5t142 -50.5q82 0 150.5 48t109.5 144q83 39 137.5 104.5t54.5 157.5q0 79 -53 142.5t-135 95.5zM1053 78q-81 0 -139 68.5t-58 152.5q0 37 18.5 113t18.5 120q0 67 -21 125q66 -20 132 -20q37 0 111.5 17.5t117.5 17.5
q80 0 148.5 -57t68.5 -138q0 -86 -51 -141t-125 -82q-74 -176 -221 -176zM905 711v10q58 14 99 14q42 0 112 -18q-65 -21 -112 -21q-36 0 -99 15zM786 719q0 12 10.5 22.5t22.5 10.5t22.5 -10.5t10.5 -22.5t-10.5 -22.5t-22.5 -10.5t-22.5 10.5t-10.5 22.5z" />
    <glyph glyph-name="R.salt" horiz-adv-x="1382" 
d="M989 520l168 -262q60 -93 110 -163t113 -144.5t124.5 -127.5t138.5 -102t160 -78.5t184.5 -47t216.5 -17.5q188 0 308 46t120 126q8 4 22 4q27 0 47.5 -16.5t20.5 -48.5q0 -49 -55 -89t-139.5 -63.5t-175 -36t-171.5 -12.5q-917 0 -1298 750l-142 278q-31 61 -67.5 90
t-91.5 29q-16 0 -33 -3.5t-26 -7.5l-9 -3v-398q0 -75 22.5 -101.5t92.5 -37.5l63 -10v-74q-170 8 -315 8q-72 0 -147 -2t-114 -4l-40 -2v74l49 10q131 26 131 188v938q0 76 -22.5 102.5t-92.5 37.5l-63 10v74q170 -9 315 -9q58 0 155 4.5t136 4.5q103 0 187 -22.5
t138.5 -58.5t92 -84t53.5 -96t16 -96q0 -78 -25.5 -145t-62 -110.5t-83.5 -77t-83.5 -50t-68.5 -24.5q29 -13 58 -41t44 -49.5t39 -59.5zM514 1337v-632q49 32 127 32q27 0 52 -3.5t37 -7.5l11 -3q61 42 111.5 130.5t50.5 197.5q0 94 -46.5 164t-114.5 102.5t-144 32.5
q-45 0 -84 -13z" />
    <glyph glyph-name="K.salt" horiz-adv-x="1505" 
d="M860 756l397 -498q186 -232 271 -323q201 -212 403 -293q160 -64 350 -64q188 0 308.5 46t120.5 126q8 4 22 4q27 0 47.5 -16.5t20.5 -48.5q0 -49 -55 -89t-139.5 -63.5t-175 -36t-171.5 -12.5q-225 0 -411 44.5t-340 137t-280.5 218t-248.5 302.5l-240 347
q-72 104 -161 104q-37 0 -64 -10v-408q0 -75 22.5 -101.5t92.5 -37.5l63 -10v-74q-170 8 -315 8q-72 0 -147 -2t-114 -4l-40 -2v74l49 10q131 26 131 188v938q0 76 -22.5 102.5t-92.5 37.5l-63 10v74q170 -9 315 -9q72 0 147 2.5t114 4.5l40 2v-74l-49 -10
q-131 -26 -131 -189v-434h133l373 524q20 28 20 47q0 41 -65 52l-60 10v74q128 -9 302 -9q79 0 145 2.5t92 4.5l27 2v-74l-41 -10q-84 -21 -142 -52t-98 -86z" />
    <glyph glyph-name="ornament.C" horiz-adv-x="1640" 
d="M836 1049h-31l-12 -244h-39q-12 177 -56.5 297.5t-130.5 193.5q0 23 19 41.5t47 18.5q62 0 110 -62q0 55 22 103t54 65q34 -17 56 -65t22 -103q21 27 51 44.5t58 17.5q29 0 48 -18.5t19 -41.5q-86 -72 -129.5 -193t-56.5 -298h-39zM805 381h31l12 244h39
q13 -178 56.5 -299t129.5 -193q0 -23 -19 -41t-48 -18t-58.5 17t-50.5 44q0 -55 -22 -103t-56 -65q-32 17 -54 65t-22 103q-47 -61 -110 -61q-28 0 -47 18t-19 41q86 73 130.5 194t56.5 298h39zM485 729v-31l244 -12v-39q-177 -13 -298 -56.5t-193 -129.5q-23 0 -41.5 19
t-18.5 48q0 28 17.5 58t44.5 51q-55 0 -103 22t-65 56q17 32 64.5 52.5t103.5 20.5q-62 51 -62 113q0 28 18.5 47t41.5 19q73 -86 193.5 -130.5t297.5 -56.5v-39zM1153 698v31l-244 12v39q177 12 298 56.5t194 130.5q23 0 41 -19t18 -47q0 -62 -61 -113q56 0 103.5 -20.5
t64.5 -52.5q-17 -34 -65 -56t-103 -22q27 -21 44 -50.5t17 -58.5t-18 -48t-41 -19q-72 86 -193 129.5t-299 56.5v39zM793 715q0 9 8.5 17.5t17.5 8.5q10 0 19.5 -8.5t9.5 -17.5q0 -11 -9 -20t-20 -9q-9 0 -17.5 9.5t-8.5 19.5z" />
    </font>
</defs>
</svg>
