<?xml version="1.0" standalone="no"?>
<!DOCTYPE svg PUBLIC "-//W3C//DTD SVG 1.1//EN" "http://www.w3.org/Graphics/SVG/1.1/DTD/svg11.dtd" >
<svg xmlns="http://www.w3.org/2000/svg" xmlns:xlink="http://www.w3.org/1999/xlink" version="1.1">
<metadata>
Created by FontForge 20170731 at Sun Jul 13 04:18:52 2003
 By Aleksey,,,
Copyright (c) James Arboghast/Sentinel Type, 2003. All rights reserved. This font is free and distributable. You may: a) use it free of charge for any personal or commercial purpose, b) email it to anybody, upload it to archive sites &#38; bulletin boards and include it in CD &#38; software collections free of charge provided the documentation is intact. c) make derivative works from it but GET MY PERMISSION FIRST: arboghast@hotmail.com  You may not: a) charge money for it, b) make derivative works from it, rename it or claim it as your own work without my permission.  Don't argue with me.
</metadata>
<defs>
<font id="BigNoodleTitling" horiz-adv-x="402" >
  <font-face 
    font-family="BigNoodleTitling"
    font-weight="400"
    font-stretch="normal"
    units-per-em="1000"
    panose-1="2 0 7 8 3 4 2 4 1 0"
    ascent="800"
    descent="-200"
    x-height="718"
    cap-height="718"
    bbox="-75 -183 824 894"
    underline-thickness="40"
    underline-position="-125"
    unicode-range="U+0020-FB02"
  />
<missing-glyph horiz-adv-x="421" 
d="M38 0h345v644h-345v-644zM100 58v529h220v-529h-220z" />
    <glyph glyph-name=".notdef" horiz-adv-x="421" 
d="M38 0h345v644h-345v-644zM100 58v529h220v-529h-220z" />
    <glyph glyph-name=".null" horiz-adv-x="0" 
 />
    <glyph glyph-name="nonmarkingreturn" horiz-adv-x="290" 
 />
    <glyph glyph-name="space" unicode=" " horiz-adv-x="160" 
 />
    <glyph glyph-name="space" unicode="&#xa0;" horiz-adv-x="160" 
 />
    <glyph glyph-name="exclam" unicode="!" horiz-adv-x="195" 
d="M151 718l-12 -524h-81l-13 524h106zM151 122v-122h-102v122h102z" />
    <glyph glyph-name="quotedbl" unicode="&#x22;" horiz-adv-x="275" 
d="M162 718h95l-12 -298h-71zM18 718h95l-12 -298h-71z" />
    <glyph glyph-name="numbersign" unicode="#" horiz-adv-x="465" 
d="M314 718h68l-21 -171h74l-8 -68h-74l-29 -235h74l-8 -68h-75l-21 -176h-68l21 176h-101l-21 -176h-68l21 176h-78l8 68h79l29 235h-79l8 68h79l21 171h68l-21 -171h101zM155 244h101l29 235h-101z" />
    <glyph glyph-name="dollar" unicode="$" horiz-adv-x="375" 
d="M229 525v63q0 43 -42 43h-15q-41 0 -41 -43v-122q0 -20 8 -27t26 -18l91 -49q30 -17 42.5 -26.5t19.5 -23t7 -51.5v-150q0 -118 -110 -121v-76h-69v76q-111 2 -111 132v36h96v-39q0 -42 43 -42h17q38 0 38 42v119q0 20 -8 27t-26 18l-91 51q-30 16 -43.5 27t-19.5 28.5
t-6 45.5v150q0 121 111 123v76h69v-76q110 -3 110 -123v-70h-96z" />
    <glyph glyph-name="percent" unicode="%" horiz-adv-x="619" 
d="M454 718l-228 -718h-61l228 718h61zM151 334h-32q-79 0 -79 75v234q0 75 79 75h32q79 0 79 -75v-234q0 -75 -79 -75zM142 663h-15q-22 0 -22 -28v-219q0 -28 22 -28h15q23 0 23 28v219q0 28 -23 28zM500 0h-32q-79 0 -79 75v234q0 75 79 75h32q79 0 79 -75v-234
q0 -75 -79 -75zM491 329h-15q-22 0 -22 -28v-219q0 -28 22 -28h15q23 0 23 28v219q0 28 -23 28z" />
    <glyph glyph-name="ampersand" unicode="&#x26;" horiz-adv-x="373" 
d="M116 371q-64 15 -64 77v147q0 123 115 123h38q115 0 115 -123v-63h-90v64q0 42 -44 42h-11q-33 -6 -33 -42v-142q0 -52 44 -52h177v-71h-43v-209q0 -122 -116 -122h-48q-116 0 -116 122v163q0 66 76 86zM230 331h-43q-57 0 -57 -52v-157q0 -42 43 -42h19q38 0 38 42v209z
" />
    <glyph glyph-name="quotesingle" unicode="'" horiz-adv-x="119" 
d="M12 718h95l-12 -298h-71z" />
    <glyph glyph-name="parenleft" unicode="(" horiz-adv-x="206" 
d="M206 -183h-46q-110 0 -110 122v656q0 123 110 123h46v-76h-30q-42 0 -42 -51v-648q0 -51 42 -51h30v-75z" />
    <glyph glyph-name="parenright" unicode=")" horiz-adv-x="206" 
d="M0 -183h46q110 0 110 122v656q0 123 -110 123h-46v-76h30q42 0 42 -51v-648q0 -51 -42 -51h-30v-75z" />
    <glyph glyph-name="asterisk" unicode="*" horiz-adv-x="344" 
d="M82 720l70 -72l8 6l8 103l94 -31l-50 -90l4 -7l101 24l3 -88l-98 14l-4 -7l60 -79l-82 -47l-28 102l-9 3l-73 -76l-56 73l90 43l-2 9l-94 42z" />
    <glyph glyph-name="plus" unicode="+" horiz-adv-x="381" 
d="M238 300v-112h-88v112h-110v84h110v116h88v-116h103v-84h-103z" />
    <glyph glyph-name="comma" unicode="," horiz-adv-x="167" 
d="M31 -119l46 119h-47v124h107v-124l-48 -119h-58z" />
    <glyph glyph-name="hyphen" unicode="-" horiz-adv-x="244" 
d="M12 281v80h220v-80h-220z" />
    <glyph glyph-name="hyphen" unicode="&#xad;" horiz-adv-x="244" 
d="M12 281v80h220v-80h-220z" />
    <glyph glyph-name="period" unicode="." horiz-adv-x="162" 
d="M132 122v-122h-102v122h102z" />
    <glyph glyph-name="slash" unicode="/" horiz-adv-x="287" 
d="M287 768l-220 -818h-67l219 818h68z" />
    <glyph glyph-name="zero" unicode="0" horiz-adv-x="387" 
d="M160 0q-115 0 -115 123v472q0 123 115 123h67q115 0 115 -123v-472q0 -123 -115 -123h-67zM179 631q-38 0 -38 -42v-460q0 -42 43 -42h24q38 0 38 42v460q0 42 -43 42h-24z" />
    <glyph glyph-name="one" unicode="1" horiz-adv-x="242" 
d="M37 559l-22 66q37 14 63 39t41 54h10l63 -34v-684h-95v577z" />
    <glyph glyph-name="two" unicode="2" horiz-adv-x="369" 
d="M312 86v-86h-258v221q0 18 3 30t10.5 22.5t26.5 29.5l97 93q11 11 17.5 19t9 13.5t3 11.5t0.5 16v133q0 42 -41 42h-6q-41 0 -41 -42v-74h-96v80q0 123 115 123h50q115 0 115 -123v-172q0 -20 -5.5 -35t-28.5 -37l-106 -102q-20 -19 -23 -26t-3.5 -14t-0.5 -19v-104h162z
" />
    <glyph glyph-name="three" unicode="3" horiz-adv-x="373" 
d="M258 369q75 -20 75 -91v-156q0 -122 -115 -122h-65q-115 0 -115 122v46h96v-39q0 -42 38 -42h22q43 0 43 42v148q0 47 -56 47h-26v81h14q56 0 56 47v136q0 42 -43 42h-13q-38 0 -38 -42v-73h-96v80q0 123 115 123h56q115 0 115 -123v-143q0 -68 -63 -83z" />
    <glyph glyph-name="four" unicode="4" horiz-adv-x="367" 
d="M352 168h-55v-168h-94v168h-168l-20 81l186 469h96v-469h55v-81zM213 527h-5l-91 -278h89z" />
    <glyph glyph-name="five" unicode="5" horiz-adv-x="364" 
d="M40 168h96v-39q0 -42 38 -42h11q43 0 43 42v164q0 47 -40 47h-145v378h271v-89h-181v-202h76q115 0 115 -127v-173q0 -127 -115 -127h-54q-115 0 -115 122v46z" />
    <glyph glyph-name="six" unicode="6" horiz-adv-x="385" 
d="M238 515v64q0 52 -43 52h-16q-38 0 -38 -42v-218l60 40h29q110 0 110 -123v-167q0 -121 -110 -121h-75q-110 0 -110 121v474q0 123 110 123h69q110 0 110 -123v-80h-96zM141 324v-194q0 -43 42 -43h18q43 0 43 43v142q0 52 -43 52h-60z" />
    <glyph glyph-name="seven" unicode="7" horiz-adv-x="303" 
d="M65 0l124 629h-179v89h251l27 -52l-128 -666h-95z" />
    <glyph glyph-name="eight" unicode="8" horiz-adv-x="383" 
d="M116 366q-69 15 -69 87v142q0 123 115 123h59q115 0 115 -123v-143q0 -72 -63 -87q70 -20 70 -86v-157q0 -122 -115 -122h-73q-115 0 -115 122v158q0 66 76 86zM179 87h25q43 0 43 52v134q0 51 -55 51q-56 -1 -56 -50v-135q0 -52 43 -52zM143 578v-119q0 -52 43 -52h11
q43 7 43 51v120q0 52 -43 52h-11q-43 0 -43 -52z" />
    <glyph glyph-name="nine" unicode="9" horiz-adv-x="383" 
d="M147 168v-29q0 -52 43 -52h14q38 0 38 42v174l-60 -40h-22q-115 0 -115 128v201q0 126 115 126h63q115 0 115 -126v-464q0 -128 -115 -128h-57q-115 0 -115 128v40h96zM242 350v238q0 43 -47 43h-11q-43 0 -43 -43v-186q0 -52 43 -52h58z" />
    <glyph glyph-name="colon" unicode=":" horiz-adv-x="160" 
d="M130 122v-122h-102v122h102zM130 515v-122h-102v122h102z" />
    <glyph glyph-name="semicolon" unicode=";" horiz-adv-x="160" 
d="M42 -119l46 119h-47v124h107v-124l-48 -119h-58zM130 515v-122h-102v122h102z" />
    <glyph glyph-name="semicolon" unicode="&#x37e;" horiz-adv-x="160" 
d="M42 -119l46 119h-47v124h107v-124l-48 -119h-58zM130 515v-122h-102v122h102z" />
    <glyph glyph-name="less" unicode="&#x3c;" horiz-adv-x="308" 
d="M260 48v117l-159 144l159 145v119l-248 -232v-63z" />
    <glyph glyph-name="equal" unicode="=" horiz-adv-x="370" 
d="M40 384v82h290v-82h-290zM40 222v82h290v-82h-290z" />
    <glyph glyph-name="greater" unicode="&#x3e;" horiz-adv-x="308" 
d="M48 46l248 232v64l-248 229v-117l159 -144l-159 -145v-119z" />
    <glyph glyph-name="question" unicode="?" horiz-adv-x="376" 
d="M121 194v121q0 22 3.5 34t9 19t19.5 18l69 51q12 10 15 18.5t3 28.5v103q0 44 -42 44h-37q-40 0 -40 -44v-52h-96v60q0 123 115 123h82q114 0 114 -123v-146q0 -22 -3.5 -34t-11 -20t-19.5 -17l-67 -52q-12 -9 -15 -17.5t-3 -28.5v-86h-96zM222 122v-122h-102v122h102z
" />
    <glyph glyph-name="at" unicode="@" horiz-adv-x="559" 
d="M394 165h49v385q0 54 -30 80t-93 26h-90q-56 -1 -85 -32.5t-29 -86.5v-474h393v-63h-459v533q0 93 49.5 139.5t127.5 45.5h90q107 0 149.5 -45.5t42.5 -117.5v-449h-186v174h-78v-174h-71v410q0 91 85 91h50q85 0 85 -91v-351zM323 345v167q0 31 -31 31h-16
q-31 0 -31 -31v-167h78z" />
    <glyph glyph-name="A" unicode="A" horiz-adv-x="382" 
d="M136 0h-96v595q0 123 115 123h72q115 0 115 -123v-595h-96v263h-110v-263zM246 350v239q0 42 -42 42h-26q-42 0 -42 -42v-239h110z" />
    <glyph glyph-name="B" unicode="B" horiz-adv-x="382" 
d="M268 369q79 -22 79 -82v-180q0 -107 -109 -107h-193v718h164q128 0 128 -130v-138q0 -62 -69 -76v-5zM141 87h72q38 0 38 31v159q0 51 -57 51h-53v-241zM141 415h45q55 0 55 52v112q0 52 -43 52h-57v-216z" />
    <glyph glyph-name="C" unicode="C" horiz-adv-x="362" 
d="M332 168v-46q0 -122 -115 -122h-62q-115 0 -115 122v474q0 122 115 122h62q115 0 115 -122v-81h-96v74q0 42 -43 42h-19q-38 0 -38 -42v-460q0 -42 38 -42h24q38 0 38 42v39h96z" />
    <glyph glyph-name="D" unicode="D" horiz-adv-x="387" 
d="M45 0v718h167q135 0 135 -138v-476q0 -104 -115 -104h-187zM141 87h72q38 0 38 32v460q0 52 -43 52h-67v-544z" />
    <glyph glyph-name="E" unicode="E" horiz-adv-x="307" 
d="M45 0v718h238v-87h-142v-218h126v-87h-126v-239h142v-87h-238z" />
    <glyph glyph-name="F" unicode="F" horiz-adv-x="303" 
d="M267 413v-87h-126v-326h-96v718h238v-87h-142v-218h126z" />
    <glyph glyph-name="G" unicode="G" horiz-adv-x="372" 
d="M193 263v87h146v-350h-188q-111 0 -111 121v474q0 123 111 123h66q122 0 122 -125v-78h-96v64q0 52 -41 52h-24q-42 0 -42 -52v-440q0 -52 42 -52h65v176h-50z" />
    <glyph glyph-name="H" unicode="H" horiz-adv-x="400" 
d="M259 0v326h-118v-326h-96v718h96v-305h118v305h96v-718h-96z" />
    <glyph glyph-name="I" unicode="I" horiz-adv-x="186" 
d="M45 0v718h96v-718h-96z" />
    <glyph glyph-name="J" unicode="J" horiz-adv-x="257" 
d="M10 87h63q43 0 43 52v579h96v-597q0 -121 -111 -121h-91v87z" />
    <glyph glyph-name="K" unicode="K" horiz-adv-x="372" 
d="M141 0h-96v718h96v-718zM362 0h-96l-120 351v6l100 361h88l-101 -357z" />
    <glyph glyph-name="L" unicode="L" horiz-adv-x="283" 
d="M273 0h-228v718h96v-631h132v-87z" />
    <glyph glyph-name="M" unicode="M" horiz-adv-x="480" 
d="M240 296l89 422h106v-718h-96l10 470l-72 -340h-74l-72 340l10 -470h-96v718h106z" />
    <glyph glyph-name="N" unicode="N" horiz-adv-x="385" 
d="M244 371v347h96v-718h-96v143l-103 327v-470h-96v718h96z" />
    <glyph glyph-name="O" unicode="O" 
d="M156 0q-116 0 -116 122v473q0 123 115 123h92q115 0 115 -123v-473q0 -122 -116 -122h-90zM179 87h49q38 0 38 42v460q0 42 -43 42h-45q-42 0 -42 -42v-460q0 -42 43 -42z" />
    <glyph glyph-name="P" unicode="P" horiz-adv-x="367" 
d="M45 718h175q116 0 116 -123v-213q0 -122 -115 -122h-80v-260h-96v718zM141 347h61q38 0 38 42v200q0 42 -43 42h-56v-284z" />
    <glyph glyph-name="Q" unicode="Q" horiz-adv-x="417" 
d="M417 0h-261q-116 0 -116 121v474q0 123 115 123h92q115 0 115 -123v-508h55v-87zM266 87v502q0 42 -43 42h-45q-42 0 -42 -42v-460q0 -42 43 -42h87z" />
    <glyph glyph-name="R" unicode="R" horiz-adv-x="378" 
d="M45 718h188q110 0 110 -123v-177q0 -94 -57 -119l67 -299h-91l-63 290h-58v-290h-96v718zM141 372h63q43 0 43 52v155q0 52 -43 52h-63v-259z" />
    <glyph glyph-name="S" unicode="S" horiz-adv-x="360" 
d="M229 525v63q0 43 -42 43h-15q-41 0 -41 -43v-119q0 -20 8 -27t26 -18l91 -49q30 -17 42.5 -26.5t19.5 -23t7 -51.5v-153q0 -121 -116 -121h-59q-115 0 -115 132v36h96v-39q0 -42 43 -42h17q38 0 38 42v122q0 20 -8 27t-26 18l-91 51q-30 16 -43.5 27t-19.5 28.5t-6 45.5
v147q0 123 115 123h60q115 0 115 -123v-70h-96z" />
    <glyph glyph-name="T" unicode="T" horiz-adv-x="300" 
d="M198 631v-631h-96v631h-92v87h280v-87h-92z" />
    <glyph glyph-name="U" unicode="U" 
d="M357 718v-582q0 -136 -116 -136h-81q-115 0 -115 137v581h96v-584q0 -47 42 -47h39q39 0 39 47v584h96z" />
    <glyph glyph-name="V" unicode="V" horiz-adv-x="366" 
d="M356 718l-116 -718h-114l-116 718h95l78 -548l78 548h95z" />
    <glyph glyph-name="W" unicode="W" horiz-adv-x="557" 
d="M547 718l-106 -718h-104l-59 416l-58 -416h-104l-106 718h95l68 -538l68 538h75l68 -538l68 538h95z" />
    <glyph glyph-name="X" unicode="X" horiz-adv-x="333" 
d="M317 0h-93l-54 273h-2l-65 -273h-89l91 363l-85 355h94l54 -265h2l60 265h89l-86 -355z" />
    <glyph glyph-name="Y" unicode="Y" horiz-adv-x="350" 
d="M224 0h-96v264l-118 454h95l72 -312h3l65 312h95l-116 -454v-264z" />
    <glyph glyph-name="Z" unicode="Z" horiz-adv-x="293" 
d="M121 87h162v-87h-266l-7 34l151 596h-135v88h217l20 -41z" />
    <glyph glyph-name="bracketleft" unicode="[" horiz-adv-x="205" 
d="M50 -183v901h155v-71h-72v-759h72v-71h-155z" />
    <glyph glyph-name="backslash" unicode="\" horiz-adv-x="287" 
d="M68 768l219 -818h-67l-220 818h68z" />
    <glyph glyph-name="bracketright" unicode="]" horiz-adv-x="205" 
d="M0 -183v71h72v759h-72v71h155v-901h-155z" />
    <glyph glyph-name="underscore" unicode="_" horiz-adv-x="275" 
d="M0 -71v71h275v-71h-275z" />
    <glyph glyph-name="grave" unicode="`" horiz-adv-x="152" 
d="M8 680h88l46 -118h-68z" />
    <glyph glyph-name="a" unicode="a" horiz-adv-x="382" 
d="M136 0h-96v595q0 123 115 123h72q115 0 115 -123v-595h-96v263h-110v-263zM246 350v239q0 42 -42 42h-26q-42 0 -42 -42v-239h110z" />
    <glyph glyph-name="b" unicode="b" horiz-adv-x="382" 
d="M268 369q79 -22 79 -82v-180q0 -107 -109 -107h-193v718h164q128 0 128 -130v-138q0 -62 -69 -76v-5zM141 87h72q38 0 38 31v159q0 51 -57 51h-53v-241zM141 415h45q55 0 55 52v112q0 52 -43 52h-57v-216z" />
    <glyph glyph-name="c" unicode="c" horiz-adv-x="362" 
d="M332 168v-46q0 -122 -115 -122h-62q-115 0 -115 122v474q0 122 115 122h62q115 0 115 -122v-81h-96v74q0 42 -43 42h-19q-38 0 -38 -42v-460q0 -42 38 -42h24q38 0 38 42v39h96z" />
    <glyph glyph-name="d" unicode="d" horiz-adv-x="387" 
d="M45 0v718h167q135 0 135 -138v-476q0 -104 -115 -104h-187zM141 87h72q38 0 38 32v460q0 52 -43 52h-67v-544z" />
    <glyph glyph-name="e" unicode="e" horiz-adv-x="307" 
d="M45 0v718h238v-87h-142v-218h126v-87h-126v-239h142v-87h-238z" />
    <glyph glyph-name="f" unicode="f" horiz-adv-x="303" 
d="M267 413v-87h-126v-326h-96v718h238v-87h-142v-218h126z" />
    <glyph glyph-name="g" unicode="g" horiz-adv-x="372" 
d="M193 263v87h146v-350h-188q-111 0 -111 121v474q0 123 111 123h66q122 0 122 -125v-78h-96v64q0 52 -41 52h-24q-42 0 -42 -52v-440q0 -52 42 -52h65v176h-50z" />
    <glyph glyph-name="h" unicode="h" horiz-adv-x="400" 
d="M259 0v326h-118v-326h-96v718h96v-305h118v305h96v-718h-96z" />
    <glyph glyph-name="i" unicode="i" horiz-adv-x="186" 
d="M45 0v718h96v-718h-96z" />
    <glyph glyph-name="j" unicode="j" horiz-adv-x="257" 
d="M10 87h63q43 0 43 52v579h96v-597q0 -121 -111 -121h-91v87z" />
    <glyph glyph-name="k" unicode="k" horiz-adv-x="372" 
d="M141 0h-96v718h96v-718zM362 0h-96l-120 351v6l100 361h88l-101 -357z" />
    <glyph glyph-name="l" unicode="l" horiz-adv-x="283" 
d="M273 0h-228v718h96v-631h132v-87z" />
    <glyph glyph-name="m" unicode="m" horiz-adv-x="480" 
d="M240 296l89 422h106v-718h-96l10 470l-72 -340h-74l-72 340l10 -470h-96v718h106z" />
    <glyph glyph-name="n" unicode="n" horiz-adv-x="385" 
d="M244 371v347h96v-718h-96v143l-103 327v-470h-96v718h96z" />
    <glyph glyph-name="o" unicode="o" 
d="M156 0q-116 0 -116 122v473q0 123 115 123h92q115 0 115 -123v-473q0 -122 -116 -122h-90zM179 87h49q38 0 38 42v460q0 42 -43 42h-45q-42 0 -42 -42v-460q0 -42 43 -42z" />
    <glyph glyph-name="p" unicode="p" horiz-adv-x="367" 
d="M45 718h175q116 0 116 -123v-213q0 -122 -115 -122h-80v-260h-96v718zM141 347h61q38 0 38 42v200q0 42 -43 42h-56v-284z" />
    <glyph glyph-name="q" unicode="q" horiz-adv-x="417" 
d="M417 0h-261q-116 0 -116 121v474q0 123 115 123h92q115 0 115 -123v-508h55v-87zM266 87v502q0 42 -43 42h-45q-42 0 -42 -42v-460q0 -42 43 -42h87z" />
    <glyph glyph-name="r" unicode="r" horiz-adv-x="378" 
d="M45 718h188q110 0 110 -123v-177q0 -94 -57 -119l67 -299h-91l-63 290h-58v-290h-96v718zM141 372h63q43 0 43 52v155q0 52 -43 52h-63v-259z" />
    <glyph glyph-name="s" unicode="s" horiz-adv-x="360" 
d="M229 525v63q0 43 -42 43h-15q-41 0 -41 -43v-119q0 -20 8 -27t26 -18l91 -49q30 -17 42.5 -26.5t19.5 -23t7 -51.5v-153q0 -121 -116 -121h-59q-115 0 -115 132v36h96v-39q0 -42 43 -42h17q38 0 38 42v122q0 20 -8 27t-26 18l-91 51q-30 16 -43.5 27t-19.5 28.5t-6 45.5
v147q0 123 115 123h60q115 0 115 -123v-70h-96z" />
    <glyph glyph-name="t" unicode="t" horiz-adv-x="300" 
d="M198 631v-631h-96v631h-92v87h280v-87h-92z" />
    <glyph glyph-name="u" unicode="u" 
d="M357 718v-582q0 -136 -116 -136h-81q-115 0 -115 137v581h96v-584q0 -47 42 -47h39q39 0 39 47v584h96z" />
    <glyph glyph-name="v" unicode="v" horiz-adv-x="366" 
d="M356 718l-116 -718h-114l-116 718h95l78 -548l78 548h95z" />
    <glyph glyph-name="w" unicode="w" horiz-adv-x="557" 
d="M547 718l-106 -718h-104l-59 416l-58 -416h-104l-106 718h95l68 -538l68 538h75l68 -538l68 538h95z" />
    <glyph glyph-name="x" unicode="x" horiz-adv-x="333" 
d="M317 0h-93l-54 273h-2l-65 -273h-89l91 363l-85 355h94l54 -265h2l60 265h89l-86 -355z" />
    <glyph glyph-name="y" unicode="y" horiz-adv-x="350" 
d="M224 0h-96v264l-118 454h95l72 -312h3l65 312h95l-116 -454v-264z" />
    <glyph glyph-name="z" unicode="z" horiz-adv-x="293" 
d="M121 87h162v-87h-266l-7 34l151 596h-135v88h217l20 -41z" />
    <glyph glyph-name="braceleft" unicode="{" horiz-adv-x="227" 
d="M83 303q63 -20 63 -86v-279q0 -51 43 -51h38v-69h-54q-111 0 -111 123v267q0 52 -57 52v81q57 0 57 52v202q0 123 111 123h54v-69h-38q-43 0 -43 -51v-218q0 -63 -63 -77z" />
    <glyph glyph-name="bar" unicode="|" horiz-adv-x="190" 
d="M51 -80v878h88v-878h-88z" />
    <glyph glyph-name="braceright" unicode="}" horiz-adv-x="227" 
d="M144 303q-64 14 -64 77v218q0 51 -43 51h-37v69h54q110 0 110 -123v-202q0 -52 58 -52v-81q-58 0 -58 -52v-267q0 -123 -110 -123h-54v69h37q43 0 43 51v279q0 66 64 86z" />
    <glyph glyph-name="Zcaron" horiz-adv-x="293" 
d="M121 87h162v-87h-266l-7 34l151 596h-135v88h217l20 -41zM160 816l42 58h74l-86 -112h-60l-86 112h74z" />
    <glyph glyph-name="Zcaron" unicode="&#x17d;" horiz-adv-x="293" 
d="M121 87h162v-87h-266l-7 34l151 596h-135v88h217l20 -41zM160 816l42 58h74l-86 -112h-60l-86 112h74z" />
    <glyph glyph-name="zcaron" horiz-adv-x="293" 
d="M121 87h162v-87h-266l-7 34l151 596h-135v88h217l20 -41zM160 826l42 58h74l-86 -112h-60l-86 112h74z" />
    <glyph glyph-name="zcaron" unicode="&#x17e;" horiz-adv-x="293" 
d="M121 87h162v-87h-266l-7 34l151 596h-135v88h217l20 -41zM160 826l42 58h74l-86 -112h-60l-86 112h74z" />
    <glyph glyph-name="exclamdown" unicode="&#xa1;" horiz-adv-x="195" 
d="M46 0l12 524h81l13 -524h-106zM46 596v122h102v-122h-102z" />
    <glyph glyph-name="cent" unicode="&#xa2;" horiz-adv-x="347" 
d="M221 511v37q0 39 -41 39h-9q-41 0 -41 -39v-295q0 -39 41 -39h9q41 0 41 39v34h86v-42q0 -102 -96 -102h-3v-60h-70v60h-2q-96 0 -96 102v311q0 102 95 102h3v60h70v-60h3q96 0 96 -102v-45h-86z" />
    <glyph glyph-name="sterling" unicode="&#xa3;" horiz-adv-x="393" 
d="M363 180v-59q0 -121 -116 -121h-208v350h-36v77h36v168q0 123 115 123h93q116 0 116 -123v-63h-96v57q0 42 -44 42h-46q-42 0 -42 -42v-162h110v-77h-110v-263h94q38 0 38 42v51h96z" />
    <glyph glyph-name="currency" unicode="&#xa4;" horiz-adv-x="384" 
d="M237 448v-58h-95v-42h62v-59h-62v-160q0 -42 42 -42h25q39 0 39 40v29h96v-35q0 -121 -116 -121h-67q-115 0 -115 126v163h-36v59h36v42h-36v58h36v147q0 123 115 123h67q116 0 116 -123v-39h-96v32q0 43 -44 43h-20q-42 0 -42 -42v-141h95z" />
    <glyph glyph-name="yen" unicode="&#xa5;" horiz-adv-x="350" 
d="M286 173v-49h-62v-124h-96v124h-62v49h62v32h-62v49h62v10l-118 454h95l72 -312h3l65 312h95l-116 -454v-10h62v-49h-62v-32h62z" />
    <glyph glyph-name="brokenbar" unicode="&#xa6;" horiz-adv-x="210" 
d="M150 348v370h-90v-370h90zM150 -182v370h-90v-370h90z" />
    <glyph glyph-name="section" unicode="&#xa7;" horiz-adv-x="342" 
d="M215 575v33q0 39 -38 39q-41 0 -41 -39v-72q0 -14 6 -18.5t19 -10.5l68 -26q15 -6 28.5 -11.5t22.5 -12.5t14 -18t5 -29v-65q0 -54 -28 -76q13 -8 18.5 -19t5.5 -29v-119q0 -102 -96 -102h-63q-96 0 -96 102v54h87v-47q0 -39 40 -39q39 0 39 39v66q0 16 -4.5 26t-24.5 18
l-65 24q-14 4 -26.5 9.5t-23 13.5t-16 19.5t-5.5 27.5v64q0 58 29 76q-13 10 -18.5 21.5t-5.5 28.5v113q0 102 96 102h64q96 0 96 -102v-41h-87zM211 376q0 38 -39 38q-41 0 -41 -38v-27q0 -39 41 -39q39 0 39 39v27z" />
    <glyph glyph-name="dieresis" unicode="&#xa8;" horiz-adv-x="280" 
d="M110 662v-100h-80v100h80zM250 662v-100h-80v100h80z" />
    <glyph glyph-name="copyright" unicode="&#xa9;" horiz-adv-x="618" 
d="M351 444v48q0 38 -41 38q-40 0 -40 -38v-267q0 -38 40 -38q41 0 41 38v43h80v-48q0 -102 -96 -102h-53q-96 0 -96 102v277q0 102 96 102h53q96 0 96 -102v-53h-80zM192 0q-147 0 -147 157v402q0 159 147 159h234q147 0 147 -159v-402q0 -157 -147 -157h-234zM200 72h216
q79 0 79 87v399q0 88 -79 88h-216q-78 0 -78 -88v-399q0 -87 78 -87z" />
    <glyph glyph-name="ordfeminine" unicode="&#xaa;" horiz-adv-x="300" 
d="M106 230h-76v376q0 112 115 112h10q115 0 115 -112v-376h-76v151h-88v-151zM194 448v159q0 45 -42 45h-4q-42 0 -42 -45v-159h88z" />
    <glyph glyph-name="guillemotleft" unicode="&#xab;" horiz-adv-x="387" 
d="M201 140l-103 208l103 208h-83l-106 -208l106 -208h83zM357 140l-103 208l103 208h-83l-106 -208l106 -208h83z" />
    <glyph glyph-name="logicalnot" unicode="&#xac;" horiz-adv-x="416" 
d="M42 300v84h328v-176h-87v92h-241z" />
    <glyph glyph-name="registered" unicode="&#xae;" horiz-adv-x="614" 
d="M433 122h-76l-46 180h-39v-180h-84v468h164q75 0 75 -84v-121q0 -60 -43 -78zM272 371h41q30 0 30 36v74q0 35 -30 35h-41v-145zM192 0q-147 0 -147 157v402q0 159 147 159h230q147 0 147 -159v-402q0 -157 -147 -157h-230zM200 72h212q79 0 79 87v399q0 88 -79 88h-212
q-78 0 -78 -88v-399q0 -87 78 -87z" />
    <glyph glyph-name="macron" unicode="&#xaf;" horiz-adv-x="286" 
d="M268 602v71h-250v-71h250z" />
    <glyph glyph-name="macron" unicode="&#x2c9;" horiz-adv-x="286" 
d="M268 602v71h-250v-71h250z" />
    <glyph glyph-name="degree" unicode="&#xb0;" horiz-adv-x="274" 
d="M30 617q0 -23 8.5 -42.5t22.5 -33.5t33.5 -22.5t41.5 -8.5t42 8.5t34.5 22.5t23 33.5t8.5 42.5q0 22 -8.5 41.5t-23 34t-34.5 23t-42 8.5t-41.5 -8.5t-33.5 -23t-22.5 -34t-8.5 -41.5zM76 617q0 26 17.5 43.5t42.5 17.5q24 0 42 -17.5t18 -43.5q0 -24 -18 -41.5
t-42 -17.5q-25 0 -42.5 17.5t-17.5 41.5z" />
    <glyph glyph-name="plusminus" unicode="&#xb1;" horiz-adv-x="361" 
d="M238 408v-112h-88v112h-110v84h110v116h88v-116h103v-84h-103zM40 133v85h260v-85h-260z" />
    <glyph glyph-name="twosuperior" unicode="&#xb2;" horiz-adv-x="236" 
d="M204 388v-54h-165v137q0 14 3 23t19 20l64 43q12 7 14 12.5t2 16.5v58q0 19 -18 19h-14q-19 0 -19 -19v-29h-60v33q0 70 62 70h51q63 0 63 -70v-82q0 -14 -3 -22t-16 -16l-67 -47q-11 -7 -13.5 -12t-2.5 -17v-64h100z" />
    <glyph glyph-name="threesuperior" unicode="&#xb3;" horiz-adv-x="251" 
d="M180 531q41 -11 41 -43v-93q0 -61 -62 -61h-67q-62 0 -62 61v36h65v-23q0 -19 22 -19h18q21 0 21 21v68q0 27 -20 27l-28 1v47l20 1q22 0 22 23v68q0 18 -21 18h-11q-21 0 -21 -18v-28h-65v27q0 74 62 74h59q62 0 62 -74v-73q0 -33 -35 -40z" />
    <glyph glyph-name="acute" unicode="&#xb4;" horiz-adv-x="152" 
d="M78 562h-68l46 118h88z" />
    <glyph glyph-name="mu" unicode="&#xb5;" horiz-adv-x="401" 
d="M259 718h90v-618q0 -28 25 -28h20v-72h-65l-40 40q-33 -40 -80 -40h-73v-182h-86v900h89v-593q0 -38 40 -38h80v631z" />
    <glyph glyph-name="mu" unicode="&#x3bc;" horiz-adv-x="401" 
d="M259 718h90v-618q0 -28 25 -28h20v-72h-65l-40 40q-33 -40 -80 -40h-73v-182h-86v900h89v-593q0 -38 40 -38h80v631z" />
    <glyph glyph-name="paragraph" unicode="&#xb6;" horiz-adv-x="469" 
d="M348 -100v746h-169q-43 0 -43 -52v-121q0 -52 43 -52h39v168h78v-689h-78v440h-68q-110 0 -110 128v127q0 123 110 123h269v-818h-71z" />
    <glyph glyph-name="periodcentered" unicode="&#xb7;" horiz-adv-x="162" 
d="M132 402v-122h-102v122h102z" />
    <glyph glyph-name="periodcentered" unicode="&#x2219;" horiz-adv-x="162" 
d="M132 402v-122h-102v122h102z" />
    <glyph glyph-name="cedilla" unicode="&#xb8;" horiz-adv-x="222" 
d="M50 -137h46q25 0 25 24v14q0 28 -25 28h-40v97h52v-57h9q55 0 55 -58v-38q0 -54 -56 -55h-66v45z" />
    <glyph glyph-name="onesuperior" unicode="&#xb9;" horiz-adv-x="160" 
d="M25 614l-11 45q39 18 56 59h60v-384h-65v292z" />
    <glyph glyph-name="ordmasculine" unicode="&#xba;" horiz-adv-x="250" 
d="M141 334h-32q-79 0 -79 75v234q0 75 79 75h32q79 0 79 -75v-234q0 -75 -79 -75zM132 663h-15q-22 0 -22 -28v-219q0 -28 22 -28h15q23 0 23 28v219q0 28 -23 28z" />
    <glyph glyph-name="guillemotright" unicode="&#xbb;" horiz-adv-x="387" 
d="M186 556l104 -208l-104 -208h83l106 208l-106 208h-83zM30 556l104 -208l-104 -208h83l106 208l-106 208h-83z" />
    <glyph glyph-name="onequarter" unicode="&#xbc;" horiz-adv-x="509" 
d="M435 748l-325 -778h-57l323 778h59zM432 72v-72h-65v72h-114l-10 54l103 242h86v-241h37v-55h-37zM372 290h-6l-53 -163h54zM41 614l-11 45q39 18 56 59h60v-384h-65v292z" />
    <glyph glyph-name="onehalf" unicode="&#xbd;" horiz-adv-x="544" 
d="M435 748l-325 -778h-57l323 778h59zM41 614l-11 45q39 18 56 59h60v-384h-65v292zM502 54v-54h-165v137q0 14 3 23t19 20l64 43q12 7 14 12.5t2 16.5v58q0 19 -18 19h-14q-19 0 -19 -19v-29h-60v33q0 70 62 70h51q63 0 63 -70v-82q0 -14 -3 -22t-16 -16l-67 -47
q-11 -7 -13.5 -12t-2.5 -17v-64h100z" />
    <glyph glyph-name="threequarters" unicode="&#xbe;" horiz-adv-x="572" 
d="M498 748l-325 -778h-57l323 778h59zM495 72v-72h-65v72h-114l-10 54l103 242h86v-241h37v-55h-37zM435 290h-6l-53 -163h54zM190 531q41 -11 41 -43v-93q0 -61 -62 -61h-67q-62 0 -62 61v36h65v-23q0 -19 22 -19h18q21 0 21 21v68q0 27 -20 27l-28 1v47l20 1q22 0 22 23
v68q0 18 -21 18h-11q-21 0 -21 -18v-28h-65v27q0 74 62 74h59q62 0 62 -74v-73q0 -33 -35 -40z" />
    <glyph glyph-name="questiondown" unicode="&#xbf;" horiz-adv-x="376" 
d="M255 524v-121q0 -22 -3.5 -34t-9 -19t-19.5 -18l-69 -51q-12 -10 -15 -18.5t-3 -28.5v-100q0 -46 32 -46h47q40 0 40 46v24h96v-35q0 -123 -111 -123h-90q-110 0 -110 123v146q0 22 3.5 34t11 20t19.5 17l67 52q12 9 15 17.5t3 28.5v86h96zM154 596v122h102v-122h-102z
" />
    <glyph glyph-name="Agrave" unicode="&#xc0;" horiz-adv-x="382" 
d="M136 0h-96v595q0 123 115 123h72q115 0 115 -123v-595h-96v263h-110v-263zM246 350v239q0 42 -42 42h-26q-42 0 -42 -42v-239h110zM119 883h88l46 -118h-68z" />
    <glyph glyph-name="Aacute" unicode="&#xc1;" horiz-adv-x="382" 
d="M136 0h-96v595q0 123 115 123h72q115 0 115 -123v-595h-96v263h-110v-263zM246 350v239q0 42 -42 42h-26q-42 0 -42 -42v-239h110zM193 765h-68l46 118h88z" />
    <glyph glyph-name="Acircumflex" unicode="&#xc2;" horiz-adv-x="382" 
d="M136 0h-96v595q0 123 115 123h72q115 0 115 -123v-595h-96v263h-110v-263zM246 350v239q0 42 -42 42h-26q-42 0 -42 -42v-239h110zM186 823l-42 -58h-74l86 112h60l86 -112h-74z" />
    <glyph glyph-name="Atilde" unicode="&#xc3;" horiz-adv-x="382" 
d="M136 0h-96v595q0 123 115 123h72q115 0 115 -123v-595h-96v263h-110v-263zM246 350v239q0 42 -42 42h-26q-42 0 -42 -42v-239h110zM295 860q-1 -44 -24 -66.5t-53 -23.5q-11 0 -20 3t-16.5 6.5t-14 7t-14.5 3.5q-19 0 -24 -25h-49q0 43 21 64t50 23q10 0 18 -3t16 -7
t16 -7t17 -3q10 2 17 8.5t8 19.5h52z" />
    <glyph glyph-name="Adieresis" unicode="&#xc4;" horiz-adv-x="382" 
d="M136 0h-96v595q0 123 115 123h72q115 0 115 -123v-595h-96v263h-110v-263zM246 350v239q0 42 -42 42h-26q-42 0 -42 -42v-239h110zM153 865v-100h-80v100h80zM293 865v-100h-80v100h80z" />
    <glyph glyph-name="Aring" unicode="&#xc5;" horiz-adv-x="382" 
d="M136 0h-96v595q0 123 115 123h72q115 0 115 -123v-595h-96v263h-110v-263zM246 350v239q0 42 -42 42h-26q-42 0 -42 -42v-239h110zM263 816q0 -33 -21.5 -55t-53.5 -22q-30 0 -53 22t-23 55q0 34 23 56t53 22q32 0 53.5 -22t21.5 -56zM222 816q0 15 -10 25t-24 10
t-24 -10t-10 -25t10 -25t24 -10t24 10t10 25z" />
    <glyph glyph-name="AE" unicode="&#xc6;" horiz-adv-x="509" 
d="M136 0h-96v595q0 123 115 123h329v-87h-142v-218h126v-87h-126v-239h142v-87h-238v263h-110v-263zM246 350v281h-68q-42 0 -42 -42v-239h110z" />
    <glyph glyph-name="Ccedilla" unicode="&#xc7;" horiz-adv-x="362" 
d="M332 168v-46q0 -122 -115 -122h-62q-115 0 -115 122v474q0 122 115 122h62q115 0 115 -122v-81h-96v74q0 42 -43 42h-19q-38 0 -38 -42v-460q0 -42 38 -42h24q38 0 38 42v39h96zM140 -137h46q25 0 25 24v14q0 28 -25 28h-40v97h52v-57h9q55 0 55 -58v-38q0 -54 -56 -55
h-66v45z" />
    <glyph glyph-name="Egrave" unicode="&#xc8;" horiz-adv-x="307" 
d="M45 0v718h238v-87h-142v-218h126v-87h-126v-239h142v-87h-238zM75 883h88l46 -118h-68z" />
    <glyph glyph-name="Eacute" unicode="&#xc9;" horiz-adv-x="307" 
d="M45 0v718h238v-87h-142v-218h126v-87h-126v-239h142v-87h-238zM165 765h-68l46 118h88z" />
    <glyph glyph-name="Ecircumflex" unicode="&#xca;" horiz-adv-x="307" 
d="M45 0v718h238v-87h-142v-218h126v-87h-126v-239h142v-87h-238zM158 823l-42 -58h-74l86 112h60l86 -112h-74z" />
    <glyph glyph-name="Edieresis" unicode="&#xcb;" horiz-adv-x="307" 
d="M45 0v718h238v-87h-142v-218h126v-87h-126v-239h142v-87h-238zM129 865v-100h-80v100h80zM269 865v-100h-80v100h80z" />
    <glyph glyph-name="Igrave" unicode="&#xcc;" horiz-adv-x="186" 
d="M45 0v718h96v-718h-96zM15 883h88l46 -118h-68z" />
    <glyph glyph-name="Iacute" unicode="&#xcd;" horiz-adv-x="186" 
d="M45 0v718h96v-718h-96zM95 765h-68l46 118h88z" />
    <glyph glyph-name="Icircumflex" unicode="&#xce;" horiz-adv-x="186" 
d="M45 0v718h96v-718h-96zM94 823l-42 -58h-74l86 112h60l86 -112h-74z" />
    <glyph glyph-name="Idieresis" unicode="&#xcf;" horiz-adv-x="186" 
d="M45 0v718h96v-718h-96zM64 865v-100h-80v100h80zM204 865v-100h-80v100h80z" />
    <glyph glyph-name="Eth" unicode="&#xd0;" horiz-adv-x="387" 
d="M45 0v718h167q135 0 135 -138v-476q0 -104 -115 -104h-187zM141 87h72q38 0 38 32v460q0 52 -43 52h-67v-544zM11.127 304v80h203.994v-80h-203.994z" />
    <glyph glyph-name="Ntilde" unicode="&#xd1;" horiz-adv-x="405" 
d="M244 371v347h96v-718h-96v143l-103 327v-470h-96v718h96zM310 860q-1 -44 -24 -66.5t-53 -23.5q-11 0 -20 3t-16.5 6.5t-14 7t-14.5 3.5q-19 0 -24 -25h-49q0 43 21 64t50 23q10 0 18 -3t16 -7t16 -7t17 -3q10 2 17 8.5t8 19.5h52z" />
    <glyph glyph-name="Ograve" unicode="&#xd2;" 
d="M156 0q-116 0 -116 122v473q0 123 115 123h92q115 0 115 -123v-473q0 -122 -116 -122h-90zM179 87h49q38 0 38 42v460q0 42 -43 42h-45q-42 0 -42 -42v-460q0 -42 43 -42zM115 883h88l46 -118h-68z" />
    <glyph glyph-name="Oacute" unicode="&#xd3;" 
d="M156 0q-116 0 -116 122v473q0 123 115 123h92q115 0 115 -123v-473q0 -122 -116 -122h-90zM179 87h49q38 0 38 42v460q0 42 -43 42h-45q-42 0 -42 -42v-460q0 -42 43 -42zM211 765h-68l46 118h88z" />
    <glyph glyph-name="Ocircumflex" unicode="&#xd4;" 
d="M156 0q-116 0 -116 122v473q0 123 115 123h92q115 0 115 -123v-473q0 -122 -116 -122h-90zM179 87h49q38 0 38 42v460q0 42 -43 42h-45q-42 0 -42 -42v-460q0 -42 43 -42zM201 823l-42 -58h-74l86 112h60l86 -112h-74z" />
    <glyph glyph-name="Otilde" unicode="&#xd5;" 
d="M156 0q-116 0 -116 122v473q0 123 115 123h92q115 0 115 -123v-473q0 -122 -116 -122h-90zM179 87h49q38 0 38 42v460q0 42 -43 42h-45q-42 0 -42 -42v-460q0 -42 43 -42zM304 860q-1 -44 -24 -66.5t-53 -23.5q-11 0 -20 3t-16.5 6.5t-14 7t-14.5 3.5q-19 0 -24 -25h-49
q0 43 21 64t50 23q10 0 18 -3t16 -7t16 -7t17 -3q10 2 17 8.5t8 19.5h52z" />
    <glyph glyph-name="Odieresis" unicode="&#xd6;" 
d="M156 0q-116 0 -116 122v473q0 123 115 123h92q115 0 115 -123v-473q0 -122 -116 -122h-90zM179 87h49q38 0 38 42v460q0 42 -43 42h-45q-42 0 -42 -42v-460q0 -42 43 -42zM168 865v-100h-80v100h80zM308 865v-100h-80v100h80z" />
    <glyph glyph-name="multiply" unicode="&#xd7;" horiz-adv-x="378" 
d="M337 414l-63 64l-85 -94l-92 102l-64 -62l100 -95l-94 -84l64 -64l85 93l94 -101l62 62l-101 94z" />
    <glyph glyph-name="Oslash" unicode="&#xd8;" 
d="M301 778l-12 -65q73 -20 73 -118v-473q0 -122 -116 -122h-90h-1l-11 -60h-45l12 65q-71 21 -71 117v473q0 123 115 123h90l11 60h45zM266 591l-95 -504h57q38 0 38 42v462zM136 136l92 495h-50q-42 0 -42 -42v-453z" />
    <glyph glyph-name="Ugrave" unicode="&#xd9;" 
d="M357 718v-582q0 -136 -116 -136h-81q-115 0 -115 137v581h96v-584q0 -47 42 -47h39q39 0 39 47v584h96zM118 883h88l46 -118h-68z" />
    <glyph glyph-name="Uacute" unicode="&#xda;" 
d="M357 718v-582q0 -136 -116 -136h-81q-115 0 -115 137v581h96v-584q0 -47 42 -47h39q39 0 39 47v584h96zM203 765h-68l46 118h88z" />
    <glyph glyph-name="Ucircumflex" unicode="&#xdb;" 
d="M357 718v-582q0 -136 -116 -136h-81q-115 0 -115 137v581h96v-584q0 -47 42 -47h39q39 0 39 47v584h96zM201 823l-42 -58h-74l86 112h60l86 -112h-74z" />
    <glyph glyph-name="Udieresis" unicode="&#xdc;" 
d="M357 718v-582q0 -136 -116 -136h-81q-115 0 -115 137v581h96v-584q0 -47 42 -47h39q39 0 39 47v584h96zM171 865v-100h-80v100h80zM311 865v-100h-80v100h80z" />
    <glyph glyph-name="Yacute" unicode="&#xdd;" horiz-adv-x="350" 
d="M224 0h-96v264l-118 454h95l72 -312h3l65 312h95l-116 -454v-264zM177 765h-68l46 118h88z" />
    <glyph glyph-name="Thorn" unicode="&#xde;" horiz-adv-x="377" 
d="M140 598h93q114 0 114 -123v-129q0 -121 -116 -121h-90v-225h-96v718h95v-120zM141 312h72q38 0 38 42v115q0 42 -43 42h-67v-199z" />
    <glyph glyph-name="germandbls" unicode="&#xdf;" horiz-adv-x="432" 
d="M178 87h80q38 0 38 42v142q0 39 -34 39h-63v139h34q28 0 28 28v110q0 44 -41 44h-40q-39 0 -39 -44v-587h-96v598q0 120 110 120h86q116 0 116 -122v-112q0 -97 -70 -102v-5q105 -3 105 -109v-166q0 -102 -109 -102h-105v87z" />
    <glyph glyph-name="agrave" unicode="&#xe0;" horiz-adv-x="382" 
d="M136 0h-96v595q0 123 115 123h72q115 0 115 -123v-595h-96v263h-110v-263zM246 350v239q0 42 -42 42h-26q-42 0 -42 -42v-239h110zM111 890h88l46 -118h-68z" />
    <glyph glyph-name="aacute" unicode="&#xe1;" horiz-adv-x="382" 
d="M136 0h-96v595q0 123 115 123h72q115 0 115 -123v-595h-96v263h-110v-263zM246 350v239q0 42 -42 42h-26q-42 0 -42 -42v-239h110zM198 772h-68l46 118h88z" />
    <glyph glyph-name="acircumflex" unicode="&#xe2;" horiz-adv-x="382" 
d="M136 0h-96v595q0 123 115 123h72q115 0 115 -123v-595h-96v263h-110v-263zM246 350v239q0 42 -42 42h-26q-42 0 -42 -42v-239h110zM136 0h-96v595q0 123 115 123h72q115 0 115 -123v-595h-96v263h-110v-263zM246 350v239q0 42 -42 42h-26q-42 0 -42 -42v-239h110z
M193 830l-42 -58h-74l86 112h60l86 -112h-74z" />
    <glyph glyph-name="atilde" unicode="&#xe3;" horiz-adv-x="382" 
d="M136 0h-96v595q0 123 115 123h72q115 0 115 -123v-595h-96v263h-110v-263zM246 350v239q0 42 -42 42h-26q-42 0 -42 -42v-239h110zM299 857q-1 -44 -24 -66.5t-53 -23.5q-11 0 -20 3t-16.5 6.5t-14 7t-14.5 3.5q-19 0 -24 -25h-49q0 43 21 64t50 23q10 0 18 -3t16 -7
t16 -7t17 -3q10 2 17 8.5t8 19.5h52z" />
    <glyph glyph-name="adieresis" unicode="&#xe4;" horiz-adv-x="382" 
d="M136 0h-96v595q0 123 115 123h72q115 0 115 -123v-595h-96v263h-110v-263zM246 350v239q0 42 -42 42h-26q-42 0 -42 -42v-239h110zM158 862v-100h-80v100h80zM298 862v-100h-80v100h80z" />
    <glyph glyph-name="aring" unicode="&#xe5;" horiz-adv-x="382" 
d="M136 0h-96v595q0 123 115 123h72q115 0 115 -123v-595h-96v263h-110v-263zM246 350v239q0 42 -42 42h-26q-42 0 -42 -42v-239h110zM269 813q0 -33 -21.5 -55t-53.5 -22q-30 0 -53 22t-23 55q0 34 23 56t53 22q32 0 53.5 -22t21.5 -56zM228 813q0 15 -10 25t-24 10
t-24 -10t-10 -25t10 -25t24 -10t24 10t10 25z" />
    <glyph glyph-name="ae" unicode="&#xe6;" horiz-adv-x="509" 
d="M136 0h-96v595q0 123 115 123h329v-87h-142v-218h126v-87h-126v-239h142v-87h-238v263h-110v-263zM246 350v281h-68q-42 0 -42 -42v-239h110z" />
    <glyph glyph-name="ccedilla" unicode="&#xe7;" horiz-adv-x="362" 
d="M332 168v-46q0 -122 -115 -122h-62q-115 0 -115 122v474q0 122 115 122h62q115 0 115 -122v-81h-96v74q0 42 -43 42h-19q-38 0 -38 -42v-460q0 -42 38 -42h24q38 0 38 42v39h96zM143 -137h46q25 0 25 24v14q0 28 -25 28h-40v97h52v-57h9q55 0 55 -58v-38q0 -54 -56 -55
h-66v45z" />
    <glyph glyph-name="egrave" unicode="&#xe8;" horiz-adv-x="307" 
d="M45 0v718h238v-87h-142v-218h126v-87h-126v-239h142v-87h-238zM84 870h88l46 -118h-68z" />
    <glyph glyph-name="eacute" unicode="&#xe9;" horiz-adv-x="307" 
d="M45 0v718h238v-87h-142v-218h126v-87h-126v-239h142v-87h-238zM178 772h-68l46 118h88z" />
    <glyph glyph-name="ecircumflex" unicode="&#xea;" horiz-adv-x="307" 
d="M45 0v718h238v-87h-142v-218h126v-87h-126v-239h142v-87h-238zM162 820l-42 -58h-74l86 112h60l86 -112h-74z" />
    <glyph glyph-name="edieresis" unicode="&#xeb;" horiz-adv-x="307" 
d="M45 0v718h238v-87h-142v-218h126v-87h-126v-239h142v-87h-238zM137 863v-100h-80v100h80zM277 863v-100h-80v100h80z" />
    <glyph glyph-name="igrave" unicode="&#xec;" horiz-adv-x="186" 
d="M45 0v718h96v-718h-96zM18 880h88l46 -118h-68z" />
    <glyph glyph-name="iacute" unicode="&#xed;" horiz-adv-x="186" 
d="M45 0v718h96v-718h-96zM98 764h-68l46 118h88z" />
    <glyph glyph-name="icircumflex" unicode="&#xee;" horiz-adv-x="186" 
d="M45 0v718h96v-718h-96zM89 823l-42 -58h-74l86 112h60l86 -112h-74z" />
    <glyph glyph-name="idieresis" unicode="&#xef;" horiz-adv-x="186" 
d="M45 0v718h96v-718h-96zM61 862v-100h-80v100h80zM201 862v-100h-80v100h80z" />
    <glyph glyph-name="eth" unicode="&#xf0;" horiz-adv-x="387" 
d="M45 0v718h167q135 0 135 -138v-476q0 -104 -115 -104h-187zM141 87h72q38 0 38 32v460q0 52 -43 52h-67v-544zM11.8008 305v80h198.005v-80h-198.005z" />
    <glyph glyph-name="ntilde" unicode="&#xf1;" horiz-adv-x="385" 
d="M244 371v347h96v-718h-96v143l-103 327v-470h-96v718h96zM301 857q-1 -44 -24 -66.5t-53 -23.5q-11 0 -20 3t-16.5 6.5t-14 7t-14.5 3.5q-19 0 -24 -25h-49q0 43 21 64t50 23q10 0 18 -3t16 -7t16 -7t17 -3q10 2 17 8.5t8 19.5h52z" />
    <glyph glyph-name="ograve" unicode="&#xf2;" 
d="M156 0q-116 0 -116 122v473q0 123 115 123h92q115 0 115 -123v-473q0 -122 -116 -122h-90zM179 87h49q38 0 38 42v460q0 42 -43 42h-45q-42 0 -42 -42v-460q0 -42 43 -42zM113 880h88l46 -118h-68z" />
    <glyph glyph-name="oacute" unicode="&#xf3;" 
d="M156 0q-116 0 -116 122v473q0 123 115 123h92q115 0 115 -123v-473q0 -122 -116 -122h-90zM179 87h49q38 0 38 42v460q0 42 -43 42h-45q-42 0 -42 -42v-460q0 -42 43 -42zM211 762h-68l46 118h88z" />
    <glyph glyph-name="ocircumflex" unicode="&#xf4;" 
d="M156 0q-116 0 -116 122v473q0 123 115 123h92q115 0 115 -123v-473q0 -122 -116 -122h-90zM179 87h49q38 0 38 42v460q0 42 -43 42h-45q-42 0 -42 -42v-460q0 -42 43 -42zM198 820l-42 -58h-74l86 112h60l86 -112h-74z" />
    <glyph glyph-name="otilde" unicode="&#xf5;" 
d="M156 0q-116 0 -116 122v473q0 123 115 123h92q115 0 115 -123v-473q0 -122 -116 -122h-90zM179 87h49q38 0 38 42v460q0 42 -43 42h-45q-42 0 -42 -42v-460q0 -42 43 -42zM304 857q-1 -44 -24 -66.5t-53 -23.5q-11 0 -20 3t-16.5 6.5t-14 7t-14.5 3.5q-19 0 -24 -25h-49
q0 43 21 64t50 23q10 0 18 -3t16 -7t16 -7t17 -3q10 2 17 8.5t8 19.5h52z" />
    <glyph glyph-name="odieresis" unicode="&#xf6;" 
d="M156 0q-116 0 -116 122v473q0 123 115 123h92q115 0 115 -123v-473q0 -122 -116 -122h-90zM179 87h49q38 0 38 42v460q0 42 -43 42h-45q-42 0 -42 -42v-460q0 -42 43 -42zM170 862v-100h-80v100h80zM310 862v-100h-80v100h80z" />
    <glyph glyph-name="divide" unicode="&#xf7;" horiz-adv-x="440" 
d="M271 579v-123h-102v123h102zM271 236v-123h-102v123h102zM25 300v86h390v-86h-390z" />
    <glyph glyph-name="oslash" unicode="&#xf8;" 
d="M301 778l-12 -65q73 -20 73 -118v-473q0 -122 -116 -122h-90h-1l-11 -60h-45l12 65q-71 21 -71 117v473q0 123 115 123h90l11 60h45zM266 591l-95 -504h57q38 0 38 42v462zM136 136l92 495h-50q-42 0 -42 -42v-453z" />
    <glyph glyph-name="ugrave" unicode="&#xf9;" 
d="M357 718v-582q0 -136 -116 -136h-81q-115 0 -115 137v581h96v-584q0 -47 42 -47h39q39 0 39 47v584h96zM98 870h88l46 -118h-68z" />
    <glyph glyph-name="uacute" unicode="&#xfa;" 
d="M357 718v-582q0 -136 -116 -136h-81q-115 0 -115 137v581h96v-584q0 -47 42 -47h39q39 0 39 47v584h96zM216 752h-68l46 118h88z" />
    <glyph glyph-name="ucircumflex" unicode="&#xfb;" 
d="M357 718v-582q0 -136 -116 -136h-81q-115 0 -115 137v581h96v-584q0 -47 42 -47h39q39 0 39 47v584h96zM197 820l-42 -58h-74l86 112h60l86 -112h-74z" />
    <glyph glyph-name="udieresis" unicode="&#xfc;" 
d="M357 718v-582q0 -136 -116 -136h-81q-115 0 -115 137v581h96v-584q0 -47 42 -47h39q39 0 39 47v584h96zM170 862v-100h-80v100h80zM310 862v-100h-80v100h80z" />
    <glyph glyph-name="yacute" unicode="&#xfd;" horiz-adv-x="350" 
d="M224 0h-96v264l-118 454h95l72 -312h3l65 312h95l-116 -454v-264zM180 752h-68l46 118h88z" />
    <glyph glyph-name="thorn" unicode="&#xfe;" horiz-adv-x="377" 
d="M140 598h93q114 0 114 -123v-129q0 -121 -116 -121h-90v-225h-96v718h95v-120zM141 312h72q38 0 38 42v115q0 42 -43 42h-67v-199z" />
    <glyph glyph-name="ydieresis" unicode="&#xff;" horiz-adv-x="350" 
d="M224 0h-96v264l-118 454h95l72 -312h3l65 312h95l-116 -454v-264zM145 862v-100h-80v100h80zM285 862v-100h-80v100h80z" />
    <glyph glyph-name="dotlessi" unicode="&#x131;" horiz-adv-x="186" 
d="M45 0v718h96v-718h-96z" />
    <glyph glyph-name="Lslash" unicode="&#x141;" horiz-adv-x="278" 
d="M215 450v-68l-69 -44v-251h132v-87h-228v277l-37 -23v68l37 23v373h96v-312z" />
    <glyph glyph-name="lslash" unicode="&#x142;" horiz-adv-x="278" 
d="M215 450v-68l-69 -44v-251h132v-87h-228v277l-37 -23v68l37 23v373h96v-312z" />
    <glyph glyph-name="OE" unicode="&#x152;" horiz-adv-x="535" 
d="M515 87v-87h-202v30l-40 -30h-118q-115 0 -115 123v472q0 123 115 123h118l40 -30v30h202v-88h-142v-217h126v-87h-126v-239h142zM179 87h61q38 0 38 43v458q0 43 -43 43h-57q-42 0 -42 -42v-460q0 -42 43 -42z" />
    <glyph glyph-name="oe" unicode="&#x153;" horiz-adv-x="535" 
d="M515 87v-87h-202v30l-40 -30h-118q-115 0 -115 123v472q0 123 115 123h118l40 -30v30h202v-88h-142v-217h126v-87h-126v-239h142zM179 87h61q38 0 38 43v458q0 43 -43 43h-57q-42 0 -42 -42v-460q0 -42 43 -42z" />
    <glyph glyph-name="Scaron" unicode="&#x160;" horiz-adv-x="360" 
d="M229 525v63q0 43 -42 43h-15q-41 0 -41 -43v-119q0 -20 8 -27t26 -18l91 -49q30 -17 42.5 -26.5t19.5 -23t7 -51.5v-153q0 -121 -116 -121h-59q-115 0 -115 132v36h96v-39q0 -42 43 -42h17q38 0 38 42v122q0 20 -8 27t-26 18l-91 51q-30 16 -43.5 27t-19.5 28.5t-6 45.5
v147q0 123 115 123h60q115 0 115 -123v-70h-96zM180 819l42 58h74l-86 -112h-60l-86 112h74z" />
    <glyph glyph-name="scaron" unicode="&#x161;" horiz-adv-x="360" 
d="M229 525v63q0 43 -42 43h-15q-41 0 -41 -43v-119q0 -20 8 -27t26 -18l91 -49q30 -17 42.5 -26.5t19.5 -23t7 -51.5v-153q0 -121 -116 -121h-59q-115 0 -115 132v36h96v-39q0 -42 43 -42h17q38 0 38 42v122q0 20 -8 27t-26 18l-91 51q-30 16 -43.5 27t-19.5 28.5t-6 45.5
v147q0 123 115 123h60q115 0 115 -123v-70h-96zM170 816l42 58h74l-86 -112h-60l-86 112h74z" />
    <glyph glyph-name="Ydieresis" unicode="&#x178;" horiz-adv-x="350" 
d="M224 0h-96v264l-118 454h95l72 -312h3l65 312h95l-116 -454v-264zM132 865v-100h-80v100h80zM272 865v-100h-80v100h80z" />
    <glyph glyph-name="florin" unicode="&#x192;" horiz-adv-x="313" 
d="M-65 -99h50q26 0 30 32l59 484h-40l9 78h40l14 121q8 57 28 79.5t76 22.5h89l-10 -84h-61q-29 0 -33 -31l-13 -108h90l-9 -78h-90l-61 -498q-8 -57 -28 -79.5t-74 -22.5h-76z" />
    <glyph glyph-name="circumflex" unicode="&#x2c6;" horiz-adv-x="320" 
d="M158 620l-42 -58h-74l86 112h60l86 -112h-74z" />
    <glyph glyph-name="caron" unicode="&#x2c7;" horiz-adv-x="320" 
d="M160 616l42 58h74l-86 -112h-60l-86 112h74z" />
    <glyph glyph-name="breve" unicode="&#x2d8;" horiz-adv-x="272" 
d="M94 673q5 -26 14 -39t28 -13q16 0 27 13t14 39h59q-8 -58 -38.5 -84.5t-61.5 -26.5q-35 0 -65 26.5t-35 84.5h58z" />
    <glyph glyph-name="dotaccent" unicode="&#x2d9;" horiz-adv-x="160" 
d="M130 684v-122h-102v122h102z" />
    <glyph glyph-name="ring" unicode="&#x2da;" horiz-adv-x="215" 
d="M185 613q0 -33 -21.5 -55t-53.5 -22q-30 0 -53 22t-23 55q0 34 23 56t53 22q32 0 53.5 -22t21.5 -56zM144 613q0 15 -10 25t-24 10t-24 -10t-10 -25t10 -25t24 -10t24 10t10 25z" />
    <glyph glyph-name="ogonek" unicode="&#x2db;" horiz-adv-x="218" 
d="M176 24q-42 -33 -57.5 -55.5t-15.5 -46.5q0 -33 34 -33q20 0 45 15v-69q-27 -13 -59 -13q-36 0 -61.5 22.5t-25.5 59.5q0 14 2.5 27.5t11.5 27.5t24.5 30.5t41.5 34.5h60z" />
    <glyph glyph-name="tilde" unicode="&#x2dc;" horiz-adv-x="294" 
d="M254 657q-1 -44 -24 -66.5t-53 -23.5q-11 0 -20 3t-16.5 6.5t-14 7t-14.5 3.5q-19 0 -24 -25h-49q0 43 21 64t50 23q10 0 18 -3t16 -7t16 -7t17 -3q10 2 17 8.5t8 19.5h52z" />
    <glyph glyph-name="hungarumlaut" unicode="&#x2dd;" horiz-adv-x="340" 
d="M304 694h-86l-56 -132h63zM177 694h-86l-55 -132h63z" />
    <glyph glyph-name="endash" unicode="&#x2013;" horiz-adv-x="286" 
d="M0 290v71h286v-71h-286z" />
    <glyph glyph-name="emdash" unicode="&#x2014;" horiz-adv-x="470" 
d="M0 290v71h470v-71h-470z" />
    <glyph glyph-name="quoteleft" unicode="&#x2018;" horiz-adv-x="161" 
d="M136 719l-46 -129h47v-135h-67q-40 0 -40 40v95l48 129h58z" />
    <glyph glyph-name="quoteright" unicode="&#x2019;" horiz-adv-x="151" 
d="M15 455l46 129h-47v135h67q40 0 40 -40v-95l-48 -129h-58z" />
    <glyph glyph-name="quotesinglbase" unicode="&#x201a;" horiz-adv-x="161" 
d="M15 -148l46 129h-47v135h67q40 0 40 -40v-95l-48 -129h-58z" />
    <glyph glyph-name="quotedblleft" unicode="&#x201c;" horiz-adv-x="319" 
d="M136 719l-46 -129h47v-135h-67q-40 0 -40 40v95l48 129h58zM294 719l-46 -129h47v-135h-67q-40 0 -40 40v95l48 129h58z" />
    <glyph glyph-name="quotedblright" unicode="&#x201d;" horiz-adv-x="319" 
d="M184 455l46 129h-47v135h67q40 0 40 -40v-95l-48 -129h-58zM25 455l46 129h-47v135h67q40 0 40 -40v-95l-48 -129h-58z" />
    <glyph glyph-name="quotedblbase" unicode="&#x201e;" horiz-adv-x="319" 
d="M184 -148l46 129h-47v135h67q40 0 40 -40v-95l-48 -129h-58zM25 -148l46 129h-47v135h67q40 0 40 -40v-95l-48 -129h-58z" />
    <glyph glyph-name="dagger" unicode="&#x2020;" horiz-adv-x="358" 
d="M338 422v93h-112v203h-95v-203h-111v-93h111v-604h95v604h112z" />
    <glyph glyph-name="daggerdbl" unicode="&#x2021;" horiz-adv-x="358" 
d="M20 93v-93h111v-182h95v182h112v93h-112v329h112v93h-112v203h-95v-203h-111v-93h111v-329h-111z" />
    <glyph glyph-name="bullet" unicode="&#x2022;" horiz-adv-x="192" 
d="M132 473v-182h-132v182h132z" />
    <glyph glyph-name="ellipsis" unicode="&#x2026;" horiz-adv-x="487" 
d="M132 122v-122h-102v122h102zM294 122v-122h-102v122h102zM456 122v-122h-102v122h102z" />
    <glyph glyph-name="perthousand" unicode="&#x2030;" horiz-adv-x="864" 
d="M454 718l-228 -718h-61l228 718h61zM151 334h-32q-79 0 -79 75v234q0 75 79 75h32q79 0 79 -75v-234q0 -75 -79 -75zM142 663h-15q-22 0 -22 -28v-219q0 -28 22 -28h15q23 0 23 28v219q0 28 -23 28zM500 0h-32q-79 0 -79 75v234q0 75 79 75h32q79 0 79 -75v-234
q0 -75 -79 -75zM491 329h-15q-22 0 -22 -28v-219q0 -28 22 -28h15q23 0 23 28v219q0 28 -23 28zM745 0h-32q-79 0 -79 75v234q0 75 79 75h32q79 0 79 -75v-234q0 -75 -79 -75zM736 329h-15q-22 0 -22 -28v-219q0 -28 22 -28h15q23 0 23 28v219q0 28 -23 28z" />
    <glyph glyph-name="guilsinglleft" unicode="&#x2039;" horiz-adv-x="231" 
d="M201 140l-103 208l103 208h-83l-106 -208l106 -208h83z" />
    <glyph glyph-name="guilsinglright" unicode="&#x203a;" horiz-adv-x="231" 
d="M30 140h83l106 208l-106 208h-83l104 -208z" />
    <glyph glyph-name="fraction" unicode="&#x2044;" horiz-adv-x="303" 
d="M303 778h-72l-231 -838h71z" />
    <glyph glyph-name="fraction" unicode="&#x2215;" horiz-adv-x="303" 
d="M303 778h-72l-231 -838h71z" />
    <glyph glyph-name="Euro" unicode="&#x20ac;" horiz-adv-x="384" 
d="M237 448v-58h-95v-42h62v-59h-62v-160q0 -42 42 -42h25q39 0 39 40v29h96v-35q0 -121 -116 -121h-67q-115 0 -115 126v163h-36v59h36v42h-36v58h36v147q0 123 115 123h67q116 0 116 -123v-39h-96v32q0 43 -44 43h-20q-42 0 -42 -42v-141h95z" />
    <glyph glyph-name="trademark" unicode="&#x2122;" horiz-adv-x="483" 
d="M188 667v51h-168v-51h56v-367h55v367h57zM339 473l52 245h62v-418h-56l6 274l-42 -198h-43l-42 198l6 -274h-56v418h62z" />
    <glyph glyph-name="minus" unicode="&#x2212;" horiz-adv-x="340" 
d="M40 300v85h260v-85h-260z" />
    <glyph glyph-name="fi" unicode="&#xfb01;" horiz-adv-x="474" 
d="M333 0v631h-192v-218h126v-87h-126v-326h-96v718h288h96v-718h-96z" />
    <glyph glyph-name="fl" unicode="&#xfb02;" horiz-adv-x="571" 
d="M561 0h-228v631h-192v-218h126v-87h-126v-326h-96v718h288h96v-631h132v-87z" />
    <glyph glyph-name="glyph227" horiz-adv-x="500" 
 />
    <glyph glyph-name="Zaron" horiz-adv-x="0" 
 />
    </font>
</defs>
</svg>
