<?xml version="1.0" standalone="no"?>
<!DOCTYPE svg PUBLIC "-//W3C//DTD SVG 1.1//EN" "http://www.w3.org/Graphics/SVG/1.1/DTD/svg11.dtd" >
<svg xmlns="http://www.w3.org/2000/svg" xmlns:xlink="http://www.w3.org/1999/xlink" version="1.1">
<metadata>
Created by FontForge 20170731 at Sun Jul 13 04:18:33 2003
 By Aleksey,,,
Copyright (c) James Arboghast/Sentinel Type, 2003. All rights reserved. This font is free and distributable. You may: a) use it free of charge for any personal or commercial purpose, b) email it to anybody, upload it to archive sites &#38; bulletin boards and include it in CD &#38; software collections free of charge provided the documentation is intact. c) make derivative works from it but GET MY PERMISSION FIRST: arboghast@hotmail.com  You may not: a) charge money for it, b) make derivative works from it, rename it or claim it as your own work without my permission.  Don't argue with me.
</metadata>
<defs>
<font id="BigNoodleTitling-Oblique" horiz-adv-x="394" >
  <font-face 
    font-family="BigNoodleTitling"
    font-weight="400"
    font-style="oblique"
    font-stretch="normal"
    units-per-em="1000"
    panose-1="2 0 7 8 3 4 2 4 1 0"
    ascent="800"
    descent="-200"
    x-height="718"
    cap-height="718"
    bbox="-96 -183 804.198 894"
    underline-thickness="40"
    underline-position="-125"
    unicode-range="U+0020-FB02"
  />
<missing-glyph horiz-adv-x="421" 
d="M38 0h345v644h-345v-644zM100 58v529h220v-529h-220z" />
    <glyph glyph-name=".notdef" horiz-adv-x="421" 
d="M38 0h345v644h-345v-644zM100 58v529h220v-529h-220z" />
    <glyph glyph-name=".null" horiz-adv-x="0" 
 />
    <glyph glyph-name="nonmarkingreturn" horiz-adv-x="284" 
 />
    <glyph glyph-name="space" unicode=" " horiz-adv-x="157" 
 />
    <glyph glyph-name="space" unicode="&#xa0;" horiz-adv-x="157" 
 />
    <glyph glyph-name="exclam" unicode="!" horiz-adv-x="191" 
d="M166 718l-39 -524h-79l14 524h104zM135 122l-6 -122h-100l6 122h100z" />
    <glyph glyph-name="quotedbl" unicode="&#x22;" horiz-adv-x="269" 
d="M165 718h94l-27 -298h-70zM24 718h93l-26 -298h-70z" />
    <glyph glyph-name="numbersign" unicode="#" horiz-adv-x="456" 
d="M326 718h67l-30 -171h73l-11 -68h-73l-41 -235h72l-10 -68h-74l-30 -176h-66l29 176h-99l-29 -176h-67l30 176h-76l10 68h78l41 235h-77l10 68h78l29 171h67l-30 -171h99zM145 244h99l42 235h-99z" />
    <glyph glyph-name="dollar" unicode="$" horiz-adv-x="367" 
d="M232 525l3 63q3 43 -38 43h-15q-40 0 -43 -43l-6 -122q-1 -20 6.5 -27t24.5 -18l86 -49q29 -17 40.5 -26.5t18 -23t4.5 -51.5l-8 -150q-6 -118 -114 -121l-4 -76h-67l4 76q-109 2 -102 132l2 36h94l-3 -39q-2 -42 40 -42h17q37 0 39 42l7 119q1 20 -7 27t-24 18l-86 51
q-29 16 -41.5 27t-17.5 28.5t-4 45.5l8 150q6 121 115 123l4 76h67l-4 -76q108 -3 102 -123l-4 -70h-94z" />
    <glyph glyph-name="percent" unicode="%" horiz-adv-x="607" 
d="M463 718l-260 -718h-60l260 718h60zM146 334h-31q-78 0 -74 75l12 234q4 75 82 75h31q78 0 74 -75l-12 -234q-4 -75 -82 -75zM154 663h-14q-22 0 -23 -28l-12 -219q-1 -28 21 -28h14q23 0 24 28l12 219q1 28 -22 28zM471 0h-31q-78 0 -74 75l12 234q4 75 82 75h31
q78 0 74 -75l-12 -234q-4 -75 -82 -75zM479 329h-14q-22 0 -24 -28l-11 -219q-1 -28 21 -28h14q23 0 24 28l11 219q2 28 -21 28z" />
    <glyph glyph-name="ampersand" unicode="&#x26;" horiz-adv-x="366" 
d="M114 371q-62 15 -59 77l8 147q6 123 119 123h37q113 0 107 -123l-3 -63h-89l3 64q2 42 -41 42h-10q-33 -6 -35 -42l-8 -142q-2 -52 41 -52h174l-4 -71h-42l-11 -209q-6 -122 -120 -122h-47q-114 0 -108 122l9 163q3 66 79 86zM223 331h-42q-56 0 -59 -52l-8 -157
q-2 -42 41 -42h18q37 0 39 42z" />
    <glyph glyph-name="quotesingle" unicode="'" horiz-adv-x="117" 
d="M19 718h93l-27 -298h-69z" />
    <glyph glyph-name="parenleft" unicode="(" horiz-adv-x="201" 
d="M177 -183h-45q-107 0 -101 122l35 656q6 123 113 123h45l-4 -76h-29q-41 0 -44 -51l-33 -648q-3 -51 38 -51h29z" />
    <glyph glyph-name="parenright" unicode=")" horiz-adv-x="201" 
d="M-23 -183h44q107 0 113 122l35 656q6 123 -101 123h-45l-4 -76h29q41 0 38 -51l-33 -648q-3 -51 -44 -51h-28z" />
    <glyph glyph-name="asterisk" unicode="*" horiz-adv-x="338" 
d="M87 720l64 -72l8 6l14 103l90 -31l-54 -90l4 -7l100 24l-1 -88l-96 14l-4 -7l55 -79l-83 -47l-22 102l-9 3l-75 -76l-51 73l90 43l-2 9l-89 42z" />
    <glyph glyph-name="plus" unicode="+" horiz-adv-x="373" 
d="M230 300l-6 -112h-86l6 112h-108l5 84h108l6 116h86l-6 -116h101l-5 -84h-101z" />
    <glyph glyph-name="comma" unicode="," horiz-adv-x="163" 
d="M23 -119l51 119h-46l7 124h105l-7 -124l-53 -119h-57z" />
    <glyph glyph-name="hyphen" unicode="-" horiz-adv-x="240" 
d="M9 281l5 80h216l-5 -80h-216z" />
    <glyph glyph-name="hyphen" unicode="&#xad;" horiz-adv-x="240" 
d="M9 281l5 80h216l-5 -80h-216z" />
    <glyph glyph-name="period" unicode="." horiz-adv-x="158" 
d="M132 122l-7 -122h-100l7 122h100z" />
    <glyph glyph-name="slash" unicode="/" horiz-adv-x="281" 
d="M302 768l-258 -818h-65l256 818h67z" />
    <glyph glyph-name="zero" unicode="0" horiz-adv-x="379" 
d="M138 0q-113 0 -107 123l25 472q6 123 119 123h65q113 0 107 -123l-25 -472q-6 -123 -119 -123h-65zM189 631q-37 0 -39 -42l-25 -460q-2 -42 40 -42h24q37 0 39 42l25 460q2 42 -40 42h-24z" />
    <glyph glyph-name="one" unicode="1" horiz-adv-x="237" 
d="M46 559l-18 66q37 14 64 39t43 54h9l61 -34l-36 -684h-93l30 577z" />
    <glyph glyph-name="two" unicode="2" horiz-adv-x="361" 
d="M290 86l-4 -86h-253l11 221q1 18 4.5 30t12 22.5t28.5 29.5l99 93q11 11 18 19t9.5 13.5t3.5 11.5t2 16l7 133q2 42 -38 42h-6q-40 0 -42 -42l-4 -74h-94l4 80q6 123 118 123h49q113 0 107 -123l-9 -172q-1 -20 -7.5 -35t-29.5 -37l-109 -102q-21 -19 -24 -26t-4 -14
t-1 -19l-6 -104h158z" />
    <glyph glyph-name="three" unicode="3" horiz-adv-x="365" 
d="M253 369q72 -20 68 -91l-8 -156q-6 -122 -119 -122h-63q-113 0 -107 122l3 46h94l-3 -39q-2 -42 35 -42h22q42 0 44 42l8 148q3 47 -52 47h-25l4 81h13q55 0 57 47l7 136q3 42 -39 42h-13q-37 0 -40 -42l-3 -73h-94l4 80q6 123 119 123h55q112 0 106 -123l-8 -143
q-3 -68 -65 -83z" />
    <glyph glyph-name="four" unicode="4" horiz-adv-x="359" 
d="M335 168h-54l-9 -168h-92l9 168h-165l-16 81l207 469h94l-24 -469h54zM216 527h-5l-103 -278h88z" />
    <glyph glyph-name="five" unicode="5" horiz-adv-x="356" 
d="M29 168h94l-3 -39q-2 -42 35 -42h11q42 0 44 42l9 164q3 47 -36 47h-142l19 378h265l-4 -89h-177l-11 -202h74q113 0 106 -127l-9 -173q-6 -127 -119 -127h-52q-113 0 -107 122z" />
    <glyph glyph-name="six" unicode="6" horiz-adv-x="377" 
d="M241 515l3 64q3 52 -39 52h-16q-37 0 -39 -42l-12 -218l61 40h28q108 0 102 -123l-9 -167q-6 -121 -114 -121h-73q-108 0 -102 121l25 474q6 123 114 123h67q108 0 102 -123l-4 -80h-94zM136 324l-10 -194q-3 -43 38 -43h18q42 0 45 43l7 142q3 52 -39 52h-59z" />
    <glyph glyph-name="seven" unicode="7" horiz-adv-x="297" 
d="M45 0l154 629h-175l4 89h246l24 -52l-160 -666h-93z" />
    <glyph glyph-name="eight" unicode="8" horiz-adv-x="375" 
d="M113 366q-66 15 -63 87l8 142q6 123 119 123h57q113 0 107 -123l-8 -143q-3 -72 -66 -87q68 -20 64 -86l-8 -157q-6 -122 -119 -122h-71q-113 0 -107 122l8 158q4 66 79 86zM160 87h25q42 0 45 52l7 134q3 51 -51 51q-55 -1 -58 -50l-7 -135q-3 -52 39 -52zM151 578
l-6 -119q-3 -52 39 -52h11q42 7 45 51l6 120q3 52 -39 52h-11q-42 0 -45 -52z" />
    <glyph glyph-name="nine" unicode="9" horiz-adv-x="375" 
d="M134 168l-2 -29q-3 -52 39 -52h14q37 0 39 42l10 174l-62 -40h-21q-113 0 -106 128l11 201q6 126 119 126h61q113 0 107 -126l-25 -464q-6 -128 -119 -128h-56q-112 0 -106 128l3 40h94zM236 350l12 238q3 43 -43 43h-11q-42 0 -45 -43l-9 -186q-3 -52 39 -52h57z" />
    <glyph glyph-name="colon" unicode=":" horiz-adv-x="156" 
d="M119 122l-6 -122h-100l6 122h100zM140 515l-6 -122h-100l6 122h100z" />
    <glyph glyph-name="semicolon" unicode=";" horiz-adv-x="157" 
d="M24 -119l51 119h-46l7 124h105l-7 -124l-53 -119h-57zM143 515l-6 -122h-100l6 122h100z" />
    <glyph glyph-name="semicolon" unicode="&#x37e;" horiz-adv-x="157" 
d="M24 -119l51 119h-46l7 124h105l-7 -124l-53 -119h-57zM143 515l-6 -122h-100l6 122h100z" />
    <glyph glyph-name="less" unicode="&#x3c;" horiz-adv-x="302" 
d="M241 48l6 117l-149 144l164 145l6 119l-256 -232l-3 -63z" />
    <glyph glyph-name="equal" unicode="=" horiz-adv-x="362" 
d="M41 384l4 82h284l-4 -82h-284zM32 222l4 82h284l-4 -82h-284z" />
    <glyph glyph-name="greater" unicode="&#x3e;" horiz-adv-x="302" 
d="M33 46l256 232l3 64l-232 229l-6 -117l149 -144l-164 -145z" />
    <glyph glyph-name="question" unicode="?" horiz-adv-x="368" 
d="M109 194l6 121q1 22 5.5 34t10 19t20.5 18l70 51q12 10 15.5 18.5t4.5 28.5l5 103q3 44 -38 44h-37q-39 0 -42 -44l-2 -52h-94l3 60q6 123 119 123h80q112 0 106 -123l-8 -146q-1 -22 -5 -34t-12 -20t-20 -17l-68 -52q-13 -9 -16.5 -17.5t-4.5 -28.5l-4 -86h-94zM204 122
l-6 -122h-100l6 122h100z" />
    <glyph glyph-name="at" unicode="@" horiz-adv-x="547" 
d="M375 165h48l20 385q3 54 -25 80t-90 26h-88q-55 -1 -85 -32.5t-33 -86.5l-25 -474h385l-3 -63h-449l28 533q4 93 55 139.5t127 45.5h88q105 0 144.5 -45.5t35.5 -117.5l-24 -449h-182l9 174h-76l-9 -174h-70l22 410q4 91 87 91h49q84 0 80 -91zM315 345l9 167
q1 31 -29 31h-16q-30 0 -31 -31l-9 -167h76z" />
    <glyph glyph-name="A" unicode="A" horiz-adv-x="374" 
d="M114 0h-94l31 595q6 123 119 123h70q113 0 107 -123l-31 -595h-94l13 263h-108zM240 350l13 239q2 42 -39 42h-26q-41 0 -43 -42l-13 -239h108z" />
    <glyph glyph-name="B" unicode="B" horiz-adv-x="374" 
d="M263 369q76 -22 73 -82l-10 -180q-5 -107 -112 -107h-189l37 718h161q125 0 118 -130l-7 -138q-3 -62 -71 -76v-5zM123 87h71q37 0 39 31l8 159q3 51 -53 51h-52zM140 415h44q54 0 57 52l6 112q3 52 -39 52h-56z" />
    <glyph glyph-name="C" unicode="C" horiz-adv-x="354" 
d="M315 168l-3 -46q-6 -122 -119 -122h-60q-113 0 -107 122l25 474q6 122 119 122h60q113 0 107 -122l-4 -81h-94l4 74q2 42 -40 42h-19q-37 0 -39 -42l-25 -460q-2 -42 35 -42h24q37 0 39 42l3 39h94z" />
    <glyph glyph-name="D" unicode="D" horiz-adv-x="379" 
d="M25 0l37 718h164q132 0 125 -138l-25 -476q-5 -104 -118 -104h-183zM123 87h71q37 0 39 32l24 460q3 52 -39 52h-66z" />
    <glyph glyph-name="E" unicode="E" horiz-adv-x="301" 
d="M25 0l37 718h234l-4 -87h-140l-12 -218h124l-4 -87h-124l-13 -239h140l-4 -87h-234z" />
    <glyph glyph-name="F" unicode="F" horiz-adv-x="297" 
d="M264 413l-4 -87h-124l-17 -326h-94l37 718h234l-4 -87h-140l-12 -218h124z" />
    <glyph glyph-name="G" unicode="G" horiz-adv-x="364" 
d="M183 263l5 87h143l-18 -350h-184q-109 0 -103 121l25 474q6 123 115 123h64q120 0 114 -125l-4 -78h-94l3 64q3 52 -37 52h-24q-41 0 -44 -52l-23 -440q-3 -52 38 -52h64l9 176h-49z" />
    <glyph glyph-name="H" unicode="H" horiz-adv-x="392" 
d="M235 0l17 326h-116l-17 -326h-94l37 718h94l-16 -305h116l16 305h94l-37 -718h-94z" />
    <glyph glyph-name="I" unicode="I" horiz-adv-x="182" 
d="M25 0l37 718h94l-37 -718h-94z" />
    <glyph glyph-name="J" unicode="J" horiz-adv-x="252" 
d="M-4 87h61q42 0 45 52l30 579h94l-31 -597q-6 -121 -115 -121h-88z" />
    <glyph glyph-name="K" unicode="K" horiz-adv-x="365" 
d="M119 0h-94l37 718h94zM336 0h-94l-100 351v6l117 361h86l-117 -357z" />
    <glyph glyph-name="L" unicode="L" horiz-adv-x="278" 
d="M249 0h-224l37 718h94l-33 -631h130z" />
    <glyph glyph-name="M" unicode="M" horiz-adv-x="470" 
d="M231 296l109 422h104l-37 -718h-94l34 470l-88 -340h-72l-54 340l-14 -470h-94l37 718h104z" />
    <glyph glyph-name="N" unicode="N" horiz-adv-x="377" 
d="M239 371l18 347h94l-37 -718h-94l7 143l-84 327l-24 -470h-94l37 718h94z" />
    <glyph glyph-name="O" unicode="O" 
d="M134 0q-114 0 -108 122l25 473q6 123 119 123h90q113 0 107 -123l-25 -473q-6 -122 -120 -122h-88zM160 87h48q38 0 40 42l25 460q2 42 -40 42h-45q-41 0 -43 -42l-25 -460q-2 -42 40 -42z" />
    <glyph glyph-name="P" unicode="P" horiz-adv-x="359" 
d="M62 718h171q114 0 108 -123l-11 -213q-7 -122 -120 -122h-78l-13 -260h-94zM137 347h60q37 0 39 42l11 200q2 42 -40 42h-55z" />
    <glyph glyph-name="Q" unicode="Q" horiz-adv-x="408" 
d="M389 0h-256q-113 0 -107 121l25 474q6 123 118 123h91q112 0 106 -123l-27 -508h54zM245 87l27 502q2 42 -40 42h-44q-41 0 -43 -42l-25 -460q-2 -42 40 -42h85z" />
    <glyph glyph-name="R" unicode="R" horiz-adv-x="370" 
d="M62 718h184q108 0 102 -123l-9 -177q-5 -94 -63 -119l51 -299h-89l-47 290h-57l-15 -290h-94zM138 372h62q42 0 45 52l8 155q3 52 -39 52h-62z" />
    <glyph glyph-name="S" unicode="S" horiz-adv-x="352" 
d="M232 525l3 63q3 43 -38 43h-15q-40 0 -43 -43l-6 -119q-1 -20 6.5 -27t24.5 -18l86 -49q29 -17 40.5 -26.5t18 -23t4.5 -51.5l-8 -153q-6 -121 -120 -121h-57q-113 0 -106 132l2 36h94l-3 -39q-2 -42 40 -42h17q37 0 39 42l7 122q1 20 -6.5 27t-24.5 18l-86 51
q-29 16 -41.5 27t-17.5 28.5t-4 45.5l8 147q6 123 119 123h58q113 0 107 -123l-4 -70h-94z" />
    <glyph glyph-name="T" unicode="T" horiz-adv-x="294" 
d="M208 631l-33 -631h-94l33 631h-90l4 87h274l-4 -87h-90z" />
    <glyph glyph-name="U" unicode="U" 
d="M368 718l-30 -582q-7 -136 -121 -136h-79q-113 0 -106 137l30 581h94l-30 -584q-3 -47 38 -47h39q38 0 41 47l30 584h94z" />
    <glyph glyph-name="V" unicode="V" horiz-adv-x="358" 
d="M367 718l-151 -718h-112l-77 718h94l48 -548l104 548h94z" />
    <glyph glyph-name="W" unicode="W" horiz-adv-x="545" 
d="M554 718l-141 -718h-102l-37 416l-78 -416h-102l-67 718h93l39 -538l95 538h73l39 -538l95 538h93z" />
    <glyph glyph-name="X" unicode="X" horiz-adv-x="327" 
d="M292 0h-91l-39 273h-2l-78 -273h-86l107 363l-65 355h92l39 -265h2l73 265h87l-102 -355z" />
    <glyph glyph-name="Y" unicode="Y" horiz-adv-x="343" 
d="M201 0h-94l14 264l-93 454h93l55 -312h3l80 312h93l-137 -454z" />
    <glyph glyph-name="Z" unicode="Z" horiz-adv-x="287" 
d="M103 87h159l-4 -87h-259l-6 34l179 596h-133l4 88h213l18 -41z" />
    <glyph glyph-name="bracketleft" unicode="[" horiz-adv-x="200" 
d="M25 -183l47 901h151l-4 -71h-70l-39 -759h70l-4 -71h-151z" />
    <glyph glyph-name="backslash" unicode="\" horiz-adv-x="281" 
d="M87 768l172 -818h-66l-172 818h66z" />
    <glyph glyph-name="bracketright" unicode="]" horiz-adv-x="200" 
d="M-23 -183l4 71h69l39 759h-70l4 71h151l-47 -901h-150z" />
    <glyph glyph-name="underscore" unicode="_" horiz-adv-x="269" 
d="M-1 -71l2 71h269l-3 -71h-268z" />
    <glyph glyph-name="grave" unicode="`" horiz-adv-x="149" 
d="M11 680h87l38 -118h-67z" />
    <glyph glyph-name="a" unicode="a" horiz-adv-x="374" 
d="M114 0h-94l31 595q6 123 119 123h70q113 0 107 -123l-31 -595h-94l13 263h-108zM240 350l13 239q2 42 -39 42h-26q-41 0 -43 -42l-13 -239h108z" />
    <glyph glyph-name="b" unicode="b" horiz-adv-x="374" 
d="M263 369q76 -22 73 -82l-10 -180q-5 -107 -112 -107h-189l37 718h161q125 0 118 -130l-7 -138q-3 -62 -71 -76v-5zM123 87h71q37 0 39 31l8 159q3 51 -53 51h-52zM140 415h44q54 0 57 52l6 112q3 52 -39 52h-56z" />
    <glyph glyph-name="c" unicode="c" horiz-adv-x="355" 
d="M315 168l-3 -46q-6 -122 -119 -122h-60q-113 0 -107 122l25 474q6 122 119 122h60q113 0 107 -122l-4 -81h-94l4 74q2 42 -40 42h-19q-37 0 -39 -42l-25 -460q-2 -42 35 -42h24q37 0 39 42l3 39h94z" />
    <glyph glyph-name="d" unicode="d" horiz-adv-x="379" 
d="M25 0l37 718h164q132 0 125 -138l-25 -476q-5 -104 -118 -104h-183zM123 87h71q37 0 39 32l24 460q3 52 -39 52h-66z" />
    <glyph glyph-name="e" unicode="e" horiz-adv-x="301" 
d="M25 0l37 718h234l-4 -87h-140l-12 -218h124l-4 -87h-124l-13 -239h140l-4 -87h-234z" />
    <glyph glyph-name="f" unicode="f" horiz-adv-x="297" 
d="M264 413l-4 -87h-124l-17 -326h-94l37 718h234l-4 -87h-140l-12 -218h124z" />
    <glyph glyph-name="g" unicode="g" horiz-adv-x="365" 
d="M183 263l5 87h143l-18 -350h-184q-109 0 -103 121l25 474q6 123 115 123h64q120 0 114 -125l-4 -78h-94l3 64q3 52 -37 52h-24q-41 0 -44 -52l-23 -440q-3 -52 38 -52h64l9 176h-49z" />
    <glyph glyph-name="h" unicode="h" horiz-adv-x="392" 
d="M235 0l17 326h-116l-17 -326h-94l37 718h94l-16 -305h116l16 305h94l-37 -718h-94z" />
    <glyph glyph-name="i" unicode="i" horiz-adv-x="182" 
d="M25 0l37 718h94l-37 -718h-94z" />
    <glyph glyph-name="j" unicode="j" horiz-adv-x="252" 
d="M-4 87h61q42 0 45 52l30 579h94l-31 -597q-6 -121 -115 -121h-88z" />
    <glyph glyph-name="k" unicode="k" horiz-adv-x="365" 
d="M119 0h-94l37 718h94zM336 0h-94l-100 351v6l117 361h86l-117 -357z" />
    <glyph glyph-name="l" unicode="l" horiz-adv-x="277" 
d="M249 0h-224l37 718h94l-33 -631h130z" />
    <glyph glyph-name="m" unicode="m" horiz-adv-x="470" 
d="M231 296l109 422h104l-37 -718h-94l34 470l-88 -340h-72l-54 340l-14 -470h-94l37 718h104z" />
    <glyph glyph-name="n" unicode="n" horiz-adv-x="377" 
d="M239 371l18 347h94l-37 -718h-94l7 143l-84 327l-24 -470h-94l37 718h94z" />
    <glyph glyph-name="o" unicode="o" 
d="M134 0q-114 0 -108 122l25 473q6 123 119 123h90q113 0 107 -123l-25 -473q-6 -122 -120 -122h-88zM160 87h48q38 0 40 42l25 460q2 42 -40 42h-45q-41 0 -43 -42l-25 -460q-2 -42 40 -42z" />
    <glyph glyph-name="p" unicode="p" horiz-adv-x="360" 
d="M62 718h171q114 0 108 -123l-11 -213q-7 -122 -120 -122h-78l-13 -260h-94zM137 347h60q37 0 39 42l11 200q2 42 -40 42h-55z" />
    <glyph glyph-name="q" unicode="q" horiz-adv-x="409" 
d="M389 0h-256q-113 0 -107 121l25 474q6 123 118 123h91q112 0 106 -123l-27 -508h54zM245 87l27 502q2 42 -40 42h-44q-41 0 -43 -42l-25 -460q-2 -42 40 -42h85z" />
    <glyph glyph-name="r" unicode="r" horiz-adv-x="370" 
d="M62 718h184q108 0 102 -123l-9 -177q-5 -94 -63 -119l51 -299h-89l-47 290h-57l-15 -290h-94zM138 372h62q42 0 45 52l8 155q3 52 -39 52h-62z" />
    <glyph glyph-name="s" unicode="s" horiz-adv-x="353" 
d="M232 525l3 63q3 43 -38 43h-15q-40 0 -43 -43l-6 -119q-1 -20 6.5 -27t24.5 -18l86 -49q29 -17 40.5 -26.5t18 -23t4.5 -51.5l-8 -153q-6 -121 -120 -121h-57q-113 0 -106 132l2 36h94l-3 -39q-2 -42 40 -42h17q37 0 39 42l7 122q1 20 -6.5 27t-24.5 18l-86 51
q-29 16 -41.5 27t-17.5 28.5t-4 45.5l8 147q6 123 119 123h58q113 0 107 -123l-4 -70h-94z" />
    <glyph glyph-name="t" unicode="t" horiz-adv-x="294" 
d="M208 631l-33 -631h-94l33 631h-90l4 87h274l-4 -87h-90z" />
    <glyph glyph-name="u" unicode="u" 
d="M368 718l-30 -582q-7 -136 -121 -136h-79q-113 0 -106 137l30 581h94l-30 -584q-3 -47 38 -47h39q38 0 41 47l30 584h94z" />
    <glyph glyph-name="v" unicode="v" horiz-adv-x="359" 
d="M367 718l-151 -718h-112l-77 718h94l48 -548l104 548h94z" />
    <glyph glyph-name="w" unicode="w" horiz-adv-x="546" 
d="M554 718l-141 -718h-102l-37 416l-78 -416h-102l-67 718h93l39 -538l95 538h73l39 -538l95 538h93z" />
    <glyph glyph-name="x" unicode="x" horiz-adv-x="326" 
d="M292 0h-91l-39 273h-2l-78 -273h-86l107 363l-65 355h92l39 -265h2l73 265h87l-102 -355z" />
    <glyph glyph-name="y" unicode="y" horiz-adv-x="343" 
d="M201 0h-94l14 264l-93 454h93l55 -312h3l80 312h93l-137 -454z" />
    <glyph glyph-name="z" unicode="z" horiz-adv-x="287" 
d="M103 87h159l-4 -87h-259l-6 34l179 596h-133l4 88h213l18 -41z" />
    <glyph glyph-name="braceleft" unicode="{" horiz-adv-x="223" 
d="M83 303q60 -20 57 -86l-15 -279q-2 -51 41 -51h37l-4 -69h-53q-109 0 -103 123l14 267q3 52 -53 52l4 81q56 0 59 52l11 202q6 123 115 123h53l-4 -69h-37q-43 0 -45 -51l-12 -218q-3 -63 -65 -77z" />
    <glyph glyph-name="bar" unicode="|" horiz-adv-x="186" 
d="M27 -80l45 878h86l-45 -878h-86z" />
    <glyph glyph-name="braceright" unicode="}" horiz-adv-x="223" 
d="M142 303q-61 14 -58 77l12 218q2 51 -41 51h-36l4 69h53q108 0 102 -123l-11 -202q-3 -52 54 -52l-4 -81q-57 0 -60 -52l-14 -267q-6 -123 -114 -123h-52l4 69h35q43 0 45 51l15 279q3 66 66 86z" />
    <glyph glyph-name="Zcaron" horiz-adv-x="287" 
d="M103 87h159l-4 -87h-259l-6 34l179 596h-133l4 88h213l18 -41zM166 816l44 58h73l-90 -112h-58l-80 112h73z" />
    <glyph glyph-name="Zcaron" unicode="&#x17d;" horiz-adv-x="287" 
d="M103 87h159l-4 -87h-259l-6 34l179 596h-133l4 88h213l18 -41zM166 816l44 58h73l-90 -112h-58l-80 112h73z" />
    <glyph glyph-name="zcaron" horiz-adv-x="287" 
d="M103 87h159l-4 -87h-259l-6 34l179 596h-133l4 88h213l18 -41zM166 826l44 58h73l-90 -112h-58l-80 112h73z" />
    <glyph glyph-name="zcaron" unicode="&#x17e;" horiz-adv-x="287" 
d="M103 87h159l-4 -87h-259l-6 34l179 596h-133l4 88h213l18 -41zM166 826l44 58h73l-90 -112h-58l-80 112h73z" />
    <glyph glyph-name="exclamdown" unicode="&#xa1;" horiz-adv-x="191" 
d="M26 0l39 524h79l-14 -524h-104zM57 596l6 122h100l-6 -122h-100z" />
    <glyph glyph-name="cent" unicode="&#xa2;" horiz-adv-x="341" 
d="M222 511l2 37q2 39 -38 39h-9q-40 0 -42 -39l-15 -295q-2 -39 38 -39h9q40 0 42 39l2 34h84l-3 -42q-5 -102 -99 -102h-3l-3 -60h-68l3 60h-2q-94 0 -89 102l17 311q5 102 98 102h3l3 60h68l-3 -60h3q94 0 89 -102l-3 -45h-84z" />
    <glyph glyph-name="sterling" unicode="&#xa3;" horiz-adv-x="385" 
d="M345 180l-3 -59q-6 -121 -119 -121h-204l18 350h-35l4 77h35l9 168q6 123 119 123h91q113 0 107 -123l-3 -63h-94l3 57q2 42 -41 42h-45q-41 0 -43 -42l-9 -162h108l-4 -77h-108l-14 -263h92q37 0 39 42l3 51h94z" />
    <glyph glyph-name="currency" unicode="&#xa4;" horiz-adv-x="376" 
d="M236 448l-3 -58h-93l-2 -42h60l-3 -59h-60l-9 -160q-2 -42 39 -42h24q39 0 41 40l2 29h94l-2 -35q-6 -121 -120 -121h-66q-112 0 -106 126l9 163h-36l3 59h36l2 42h-36l3 58h36l8 147q6 123 118 123h66q114 0 108 -123l-2 -39h-94l1 32q3 43 -41 43h-19q-41 0 -43 -42
l-8 -141h93z" />
    <glyph glyph-name="yen" unicode="&#xa5;" horiz-adv-x="343" 
d="M271 173l-3 -49h-61l-6 -124h-94l6 124h-61l3 49h61l1 32h-61l3 49h61l1 10l-93 454h93l55 -312h3l80 312h93l-137 -454l-1 -10h61l-3 -49h-61l-1 -32h61z" />
    <glyph glyph-name="brokenbar" unicode="&#xa6;" horiz-adv-x="206" 
d="M151 348l19 370h-88l-19 -370h88zM123 -182l19 370h-88l-19 -370h88z" />
    <glyph glyph-name="section" unicode="&#xa7;" horiz-adv-x="336" 
d="M222 575l2 33q2 39 -35 39q-40 0 -42 -39l-4 -72q-1 -14 4.5 -18.5t17.5 -10.5l66 -26q15 -6 27.5 -11.5t21 -12.5t12.5 -18t3 -29l-3 -65q-3 -54 -31 -76q12 -8 17 -19t4 -29l-6 -119q-5 -102 -100 -102h-61q-94 0 -89 102l3 54h85l-3 -47q-2 -39 37 -39q38 0 40 39
l4 66q1 16 -3 26t-23 18l-63 24q-13 4 -25 9.5t-22 13.5t-14.5 19.5t-3.5 27.5l3 64q3 58 32 76q-12 10 -17 21.5t-4 28.5l6 113q5 102 100 102h62q94 0 89 -102l-2 -41h-85zM207 376q2 38 -36 38q-40 0 -42 -38l-1 -27q-2 -39 38 -39q38 0 40 39z" />
    <glyph glyph-name="dieresis" unicode="&#xa8;" horiz-adv-x="274" 
d="M120 662l-5 -100h-79l5 100h79zM257 662l-5 -100h-79l5 100h79z" />
    <glyph glyph-name="copyright" unicode="&#xa9;" horiz-adv-x="606" 
d="M348 444l2 48q2 38 -38 38q-39 0 -41 -38l-14 -267q-2 -38 37 -38q40 0 42 38l3 43h79l-3 -48q-5 -102 -100 -102h-51q-95 0 -90 102l15 277q5 102 100 102h51q95 0 90 -102l-3 -53h-79zM169 0q-144 0 -136 157l21 402q8 159 152 159h230q144 0 136 -159l-21 -402
q-8 -157 -152 -157h-230zM180 72h212q77 0 82 87l21 399q5 88 -72 88h-212q-76 0 -81 -88l-21 -399q-5 -87 71 -87z" />
    <glyph glyph-name="ordfeminine" unicode="&#xaa;" horiz-adv-x="294" 
d="M91 230h-75l19 376q6 112 119 112h10q113 0 107 -112l-19 -376h-75l8 151h-86zM188 448l8 159q3 45 -38 45h-4q-41 0 -44 -45l-8 -159h86z" />
    <glyph glyph-name="guillemotleft" unicode="&#xab;" horiz-adv-x="379" 
d="M186 140l-90 208l111 208h-82l-114 -208l93 -208h82zM339 140l-90 208l111 208h-82l-114 -208l93 -208h82z" />
    <glyph glyph-name="logicalnot" unicode="&#xac;" horiz-adv-x="408" 
d="M41 300l4 84h322l-9 -176h-86l5 92h-236z" />
    <glyph glyph-name="registered" unicode="&#xae;" horiz-adv-x="602" 
d="M411 122h-74l-35 180h-38l-10 -180h-83l25 468h161q74 0 69 -84l-6 -121q-3 -60 -47 -78zM267 371h40q29 0 31 36l4 74q2 35 -27 35h-40zM169 0q-144 0 -136 157l21 402q8 159 152 159h226q144 0 136 -159l-21 -402q-8 -157 -152 -157h-226zM180 72h208q77 0 82 87
l21 399q5 88 -72 88h-208q-76 0 -81 -88l-21 -399q-5 -87 71 -87z" />
    <glyph glyph-name="macron" unicode="&#xaf;" horiz-adv-x="280" 
d="M260 602l3 71h-245l-3 -71h245z" />
    <glyph glyph-name="macron" unicode="&#x2c9;" horiz-adv-x="280" 
d="M260 602l3 71h-245l-3 -71h245z" />
    <glyph glyph-name="degree" unicode="&#xb0;" horiz-adv-x="268" 
d="M29 617q-2 -23 5.5 -42.5t20.5 -33.5t31.5 -22.5t40.5 -8.5t42 8.5t34.5 22.5t24 33.5t11.5 42.5q1 22 -6.5 41.5t-21 34t-32.5 23t-41 8.5t-41.5 -8.5t-33.5 -23t-23.5 -34t-10.5 -41.5zM74 617q1 26 19.5 43.5t42.5 17.5t40.5 -17.5t15.5 -43.5q-2 -24 -20.5 -41.5
t-42.5 -17.5t-40.5 17.5t-14.5 41.5z" />
    <glyph glyph-name="plusminus" unicode="&#xb1;" horiz-adv-x="354" 
d="M235 408l-6 -112h-86l6 112h-108l5 84h108l6 116h86l-6 -116h101l-5 -84h-101zM30 133l5 85h254l-5 -85h-254z" />
    <glyph glyph-name="twosuperior" unicode="&#xb2;" horiz-adv-x="232" 
d="M192 388l-3 -54h-161l8 137q0 14 3 23t20 20l65 43q12 7 14.5 12.5t3.5 16.5l3 58q1 19 -17 19h-14q-18 0 -19 -19l-2 -29h-59l2 33q4 70 65 70h49q62 0 58 -70l-4 -82q-1 -14 -4.5 -22t-15.5 -16l-69 -47q-11 -7 -14 -12t-3 -17l-4 -64h98z" />
    <glyph glyph-name="threesuperior" unicode="&#xb3;" horiz-adv-x="246" 
d="M177 531q39 -11 38 -43l-5 -93q-4 -61 -65 -61h-65q-61 0 -57 61l2 36h64l-2 -23q-1 -19 20 -19h18q20 0 21 21l4 68q1 27 -18 27l-28 1l3 47l20 1q21 0 22 23l4 68q1 18 -19 18h-11q-20 0 -21 -18l-2 -28h-64l2 27q4 74 65 74h57q61 0 57 -74l-4 -73q-2 -33 -36 -40z
" />
    <glyph glyph-name="acute" unicode="&#xb4;" horiz-adv-x="148" 
d="M72 562h-67l52 118h87z" />
    <glyph glyph-name="mu" unicode="&#xb5;" horiz-adv-x="393" 
d="M277 718h88l-32 -618q-2 -28 23 -28h20l-4 -72h-64l-36 40q-36 -40 -82 -40h-71l-9 -182h-85l47 900h88l-31 -593q-2 -38 37 -38h78z" />
    <glyph glyph-name="mu" unicode="&#x3bc;" horiz-adv-x="393" 
d="M277 718h88l-32 -618q-2 -28 23 -28h20l-4 -72h-64l-36 40q-36 -40 -82 -40h-71l-9 -182h-85l47 900h88l-31 -593q-2 -38 37 -38h78z" />
    <glyph glyph-name="paragraph" unicode="&#xb6;" horiz-adv-x="459" 
d="M319 -100l39 746h-166q-42 0 -45 -52l-6 -121q-3 -52 39 -52h38l9 168h77l-36 -689h-77l23 440h-66q-108 0 -101 128l6 127q7 123 115 123h263l-43 -818h-69z" />
    <glyph glyph-name="periodcentered" unicode="&#xb7;" horiz-adv-x="159" 
d="M146 402l-7 -122h-100l7 122h100z" />
    <glyph glyph-name="periodcentered" unicode="&#x2219;" horiz-adv-x="159" 
d="M146 402l-7 -122h-100l7 122h100z" />
    <glyph glyph-name="cedilla" unicode="&#xb8;" horiz-adv-x="218" 
d="M45 -137h45q25 0 27 24v14q2 28 -23 28h-39l5 97h51l-3 -57h9q54 0 51 -58l-2 -38q-3 -54 -58 -55h-65z" />
    <glyph glyph-name="onesuperior" unicode="&#xb9;" horiz-adv-x="157" 
d="M29 614l-9 45q39 18 59 59h59l-21 -384h-64l16 292z" />
    <glyph glyph-name="ordmasculine" unicode="&#xba;" horiz-adv-x="245" 
d="M128 334h-32q-77 0 -73 75l13 234q4 75 81 75h32q77 0 73 -75l-13 -234q-4 -75 -81 -75zM137 663h-15q-21 0 -23 -28l-11 -219q-2 -28 19 -28h15q22 0 24 28l11 219q2 28 -20 28z" />
    <glyph glyph-name="guillemotright" unicode="&#xbb;" horiz-adv-x="379" 
d="M192 556l92 -208l-113 -208h82l115 208l-94 208h-82zM39 556l92 -208l-113 -208h82l115 208l-94 208h-82z" />
    <glyph glyph-name="onequarter" unicode="&#xbc;" horiz-adv-x="499" 
d="M446 748l-359 -778h-56l357 778h58zM407 72l-3 -72h-63l3 72h-112l-7 54l114 242h84l-13 -241h37l-3 -55h-37zM361 290h-6l-61 -163h53zM53 614l-9 45q40 18 58 59h59l-20 -384h-64l15 292z" />
    <glyph glyph-name="onehalf" unicode="&#xbd;" horiz-adv-x="533" 
d="M447 748l-360 -778h-56l358 778h58zM54 614l-9 45q39 18 58 59h58l-20 -384h-63l15 292zM476 54l-3 -54h-161l7 137q1 14 4 23t19 20l65 43q13 7 15 12.5t3 16.5l3 58q1 19 -17 19h-14q-18 0 -19 -19l-2 -29h-59l2 33q4 70 65 70h50q61 0 57 -70l-4 -82q-1 -14 -4.5 -22
t-15.5 -16l-69 -47q-11 -7 -13.5 -12t-3.5 -17l-3 -64h98z" />
    <glyph glyph-name="threequarters" unicode="&#xbe;" horiz-adv-x="560" 
d="M508 748l-360 -778h-56l358 778h58zM469 72l-3 -72h-64l3 72h-112l-6 54l114 242h84l-13 -241h36l-3 -55h-36zM422 290h-6l-61 -163h53zM195 531q39 -11 37 -43l-5 -93q-3 -61 -64 -61h-65q-61 0 -58 61l2 36h64l-1 -23q-1 -19 20 -19h18q20 0 21 21l4 68q1 27 -18 27
l-28 1l3 47l20 1q22 0 23 23l3 68q1 18 -20 18h-11q-20 0 -21 -18l-1 -28h-64l1 27q4 74 65 74h57q61 0 57 -74l-3 -73q-2 -33 -36 -40z" />
    <glyph glyph-name="questiondown" unicode="&#xbf;" horiz-adv-x="368" 
d="M258 524l-6 -121q-1 -22 -5.5 -34t-10 -19t-20.5 -18l-70 -51q-12 -10 -15.5 -18.5t-4.5 -28.5l-5 -100q-3 -46 29 -46h46q39 0 42 46l1 24h94l-2 -35q-6 -123 -115 -123h-88q-108 0 -102 123l8 146q1 22 5 34t12 20t20 17l68 52q13 9 16.5 17.5t4.5 28.5l4 86h94z
M163 596l6 122h100l-6 -122h-100z" />
    <glyph glyph-name="Agrave" unicode="&#xc0;" horiz-adv-x="374" 
d="M114 0h-94l31 595q6 123 119 123h70q113 0 107 -123l-31 -595h-94l13 263h-108zM240 350l13 239q2 42 -39 42h-26q-41 0 -43 -42l-13 -239h108zM130 883h87l38 -118h-67z" />
    <glyph glyph-name="Aacute" unicode="&#xc1;" horiz-adv-x="374" 
d="M114 0h-94l31 595q6 123 119 123h70q113 0 107 -123l-31 -595h-94l13 263h-108zM240 350l13 239q2 42 -39 42h-26q-41 0 -43 -42l-13 -239h108zM195 765h-67l52 118h87z" />
    <glyph glyph-name="Acircumflex" unicode="&#xc2;" horiz-adv-x="374" 
d="M114 0h-94l31 595q6 123 119 123h70q113 0 107 -123l-31 -595h-94l13 263h-108zM240 350l13 239q2 42 -39 42h-26q-41 0 -43 -42l-13 -239h108zM202 823l-44 -58h-73l90 112h58l80 -112h-73z" />
    <glyph glyph-name="Atilde" unicode="&#xc3;" horiz-adv-x="374" 
d="M114 0h-94l31 595q6 123 119 123h70q113 0 107 -123l-31 -595h-94l13 263h-108zM240 350l13 239q2 42 -39 42h-26q-41 0 -43 -42l-13 -239h108zM308 860q-3 -44 -27 -66.5t-54 -23.5q-10 0 -18.5 3t-16 6.5t-13.5 7t-14 3.5q-19 0 -25 -25h-48q2 43 23.5 64t51.5 23
q10 0 17 -3t15 -7t16 -7t16 -3q10 2 17 8.5t9 19.5h51z" />
    <glyph glyph-name="Adieresis" unicode="&#xc4;" horiz-adv-x="374" 
d="M114 0h-94l31 595q6 123 119 123h70q113 0 107 -123l-31 -595h-94l13 263h-108zM240 350l13 239q2 42 -39 42h-26q-41 0 -43 -42l-13 -239h108zM172 865l-5 -100h-79l5 100h79zM309 865l-5 -100h-79l5 100h79z" />
    <glyph glyph-name="Aring" unicode="&#xc5;" horiz-adv-x="374" 
d="M114 0h-94l31 595q6 123 119 123h70q113 0 107 -123l-31 -595h-94l13 263h-108zM240 350l13 239q2 42 -39 42h-26q-41 0 -43 -42l-13 -239h108zM281 816q-1 -33 -22 -55t-52 -22q-29 0 -52 22t-22 55q-1 34 22 56t52 22q31 0 52 -22t22 -56zM241 816q-1 15 -10.5 25
t-23.5 10t-23.5 -10t-8.5 -25q-1 -15 8.5 -25t23.5 -10t23.5 10t10.5 25z" />
    <glyph glyph-name="AE" unicode="&#xc6;" horiz-adv-x="499" 
d="M115 0h-95l31 595q6 123 119 123h323l-4 -87h-140l-12 -218h124l-4 -87h-124l-13 -239h140l-4 -87h-234l13 263h-107zM240 350l15 281h-66q-41 0 -43 -42l-13 -239h107z" />
    <glyph glyph-name="Ccedilla" unicode="&#xc7;" horiz-adv-x="355" 
d="M315 168l-3 -46q-6 -122 -119 -122h-60q-113 0 -107 122l25 474q6 122 119 122h60q113 0 107 -122l-4 -81h-94l4 74q2 42 -40 42h-19q-37 0 -39 -42l-25 -460q-2 -42 35 -42h24q37 0 39 42l3 39h94zM120 -137h45q25 0 27 24v14q2 28 -23 28h-39l5 97h51l-3 -57h9
q54 0 51 -58l-2 -38q-3 -54 -58 -55h-65z" />
    <glyph glyph-name="Egrave" unicode="&#xc8;" horiz-adv-x="301" 
d="M25 0l37 718h234l-4 -87h-140l-12 -218h124l-4 -87h-124l-13 -239h140l-4 -87h-234zM87 883h87l38 -118h-67z" />
    <glyph glyph-name="Eacute" unicode="&#xc9;" horiz-adv-x="301" 
d="M25 0l37 718h234l-4 -87h-140l-12 -218h124l-4 -87h-124l-13 -239h140l-4 -87h-234zM167 765h-67l52 118h87z" />
    <glyph glyph-name="Ecircumflex" unicode="&#xca;" horiz-adv-x="301" 
d="M25 0l37 718h234l-4 -87h-140l-12 -218h124l-4 -87h-124l-13 -239h140l-4 -87h-234zM174 823l-44 -58h-73l90 112h58l80 -112h-73z" />
    <glyph glyph-name="Edieresis" unicode="&#xcb;" horiz-adv-x="301" 
d="M25 0l37 718h234l-4 -87h-140l-12 -218h124l-4 -87h-124l-13 -239h140l-4 -87h-234zM149 865l-5 -100h-79l5 100h79zM286 865l-5 -100h-79l5 100h79z" />
    <glyph glyph-name="Igrave" unicode="&#xcc;" horiz-adv-x="182" 
d="M25 0l37 718h94l-37 -718h-94zM28 883h87l38 -118h-67z" />
    <glyph glyph-name="Iacute" unicode="&#xcd;" horiz-adv-x="182" 
d="M25 0l37 718h94l-37 -718h-94zM99 765h-67l52 118h87z" />
    <glyph glyph-name="Icircumflex" unicode="&#xce;" horiz-adv-x="182" 
d="M25 0l37 718h94l-37 -718h-94zM113 823l-44 -58h-73l90 112h58l80 -112h-73z" />
    <glyph glyph-name="Idieresis" unicode="&#xcf;" horiz-adv-x="182" 
d="M25 0l37 718h94l-37 -718h-94zM86 865l-5 -100h-79l5 100h79zM223 865l-5 -100h-79l5 100h79z" />
    <glyph glyph-name="Eth" unicode="&#xd0;" horiz-adv-x="379" 
d="M25 0l37 718h164q132 0 125 -138l-25 -476q-5 -104 -118 -104h-183zM123 87h71q37 0 39 32l24 460q3 52 -39 52h-66zM8.3457 304l4.63574 80h200.285l-4.63574 -80h-200.285z" />
    <glyph glyph-name="Ntilde" unicode="&#xd1;" horiz-adv-x="397" 
d="M239 371l18 347h94l-37 -718h-94l7 143l-84 327l-24 -470h-94l37 718h94zM323 860q-3 -44 -27 -66.5t-54 -23.5q-10 0 -18.5 3t-16 6.5t-13.5 7t-14 3.5q-19 0 -25 -25h-48q2 43 23.5 64t51.5 23q10 0 17 -3t15 -7t16 -7t16 -3q10 2 17 8.5t9 19.5h51z" />
    <glyph glyph-name="Ograve" unicode="&#xd2;" 
d="M134 0q-114 0 -108 122l25 473q6 123 119 123h90q113 0 107 -123l-25 -473q-6 -122 -120 -122h-88zM160 87h48q38 0 40 42l25 460q2 42 -40 42h-45q-41 0 -43 -42l-25 -460q-2 -42 40 -42zM126 883h87l38 -118h-67z" />
    <glyph glyph-name="Oacute" unicode="&#xd3;" 
d="M134 0q-114 0 -108 122l25 473q6 123 119 123h90q113 0 107 -123l-25 -473q-6 -122 -120 -122h-88zM160 87h48q38 0 40 42l25 460q2 42 -40 42h-45q-41 0 -43 -42l-25 -460q-2 -42 40 -42zM212 765h-67l52 118h87z" />
    <glyph glyph-name="Ocircumflex" unicode="&#xd4;" 
d="M134 0q-114 0 -108 122l25 473q6 123 119 123h90q113 0 107 -123l-25 -473q-6 -122 -120 -122h-88zM160 87h48q38 0 40 42l25 460q2 42 -40 42h-45q-41 0 -43 -42l-25 -460q-2 -42 40 -42zM217 823l-44 -58h-73l90 112h58l80 -112h-73z" />
    <glyph glyph-name="Otilde" unicode="&#xd5;" 
d="M134 0q-114 0 -108 122l25 473q6 123 119 123h90q113 0 107 -123l-25 -473q-6 -122 -120 -122h-88zM160 87h48q38 0 40 42l25 460q2 42 -40 42h-45q-41 0 -43 -42l-25 -460q-2 -42 40 -42zM317 860q-3 -44 -27 -66.5t-54 -23.5q-10 0 -18.5 3t-16 6.5t-13.5 7t-14 3.5
q-19 0 -25 -25h-48q2 43 23.5 64t51.5 23q10 0 17 -3t15 -7t16 -7t16 -3q10 2 17 8.5t9 19.5h51z" />
    <glyph glyph-name="Odieresis" unicode="&#xd6;" 
d="M134 0q-114 0 -108 122l25 473q6 123 119 123h90q113 0 107 -123l-25 -473q-6 -122 -120 -122h-88zM160 87h48q38 0 40 42l25 460q2 42 -40 42h-45q-41 0 -43 -42l-25 -460q-2 -42 40 -42zM187 865l-5 -100h-79l5 100h79zM324 865l-5 -100h-79l5 100h79z" />
    <glyph glyph-name="multiply" unicode="&#xd7;" horiz-adv-x="370" 
d="M334 414l-59 64l-88 -94l-84 102l-67 -62l94 -95l-97 -84l60 -64l88 93l86 -101l65 62l-94 94z" />
    <glyph glyph-name="Oslash" unicode="&#xd8;" 
d="M316 778l-15 -65q71 -20 66 -118l-25 -473q-6 -122 -120 -122h-88h-1l-14 -60h-44l15 65q-69 21 -64 117l25 473q6 123 119 123h88l14 60h44zM273 591l-120 -504h55q38 0 40 42zM121 136l116 495h-49q-41 0 -43 -42z" />
    <glyph glyph-name="Ugrave" unicode="&#xd9;" 
d="M368 718l-30 -582q-7 -136 -121 -136h-79q-113 0 -106 137l30 581h94l-30 -584q-3 -47 38 -47h39q38 0 41 47l30 584h94zM129 883h87l38 -118h-67z" />
    <glyph glyph-name="Uacute" unicode="&#xda;" 
d="M368 718l-30 -582q-7 -136 -121 -136h-79q-113 0 -106 137l30 581h94l-30 -584q-3 -47 38 -47h39q38 0 41 47l30 584h94zM204 765h-67l52 118h87z" />
    <glyph glyph-name="Ucircumflex" unicode="&#xdb;" 
d="M368 718l-30 -582q-7 -136 -121 -136h-79q-113 0 -106 137l30 581h94l-30 -584q-3 -47 38 -47h39q38 0 41 47l30 584h94zM217 823l-44 -58h-73l90 112h58l80 -112h-73z" />
    <glyph glyph-name="Udieresis" unicode="&#xdc;" 
d="M368 718l-30 -582q-7 -136 -121 -136h-79q-113 0 -106 137l30 581h94l-30 -584q-3 -47 38 -47h39q38 0 41 47l30 584h94zM190 865l-5 -100h-79l5 100h79zM327 865l-5 -100h-79l5 100h79z" />
    <glyph glyph-name="Yacute" unicode="&#xdd;" horiz-adv-x="343" 
d="M201 0h-94l14 264l-93 454h93l55 -312h3l80 312h93l-137 -454zM179 765h-67l52 118h87z" />
    <glyph glyph-name="Thorn" unicode="&#xde;" horiz-adv-x="369" 
d="M149 598h91q112 0 106 -123l-7 -129q-7 -121 -121 -121h-88l-11 -225h-94l37 718h93zM135 312h71q37 0 39 42l6 115q2 42 -40 42h-66z" />
    <glyph glyph-name="germandbls" unicode="&#xdf;" horiz-adv-x="424" 
d="M160 87h78q37 0 39 42l8 142q2 39 -31 39h-62l7 139h34q27 0 29 28l5 110q3 44 -37 44h-39q-38 0 -41 -44l-30 -587h-95l31 598q6 120 114 120h85q113 0 107 -122l-6 -112q-5 -97 -73 -102l-1 -5q103 -3 98 -109l-9 -166q-5 -102 -112 -102h-103z" />
    <glyph glyph-name="agrave" unicode="&#xe0;" horiz-adv-x="374" 
d="M114 0h-94l31 595q6 123 119 123h70q113 0 107 -123l-31 -595h-94l13 263h-108zM240 350l13 239q2 42 -39 42h-26q-41 0 -43 -42l-13 -239h108zM122 890h87l38 -118h-67z" />
    <glyph glyph-name="aacute" unicode="&#xe1;" horiz-adv-x="374" 
d="M114 0h-94l31 595q6 123 119 123h70q113 0 107 -123l-31 -595h-94l13 263h-108zM240 350l13 239q2 42 -39 42h-26q-41 0 -43 -42l-13 -239h108zM200 772h-67l52 118h87z" />
    <glyph glyph-name="acircumflex" unicode="&#xe2;" horiz-adv-x="374" 
d="M114 0h-94l31 595q6 123 119 123h70q113 0 107 -123l-31 -595h-94l13 263h-108zM240 350l13 239q2 42 -39 42h-26q-41 0 -43 -42l-13 -239h108zM114 0h-94l31 595q6 123 119 123h70q113 0 107 -123l-31 -595h-94l13 263h-108zM240 350l13 239q2 42 -39 42h-26
q-41 0 -43 -42l-13 -239h108zM209 830l-44 -58h-73l90 112h58l80 -112h-73z" />
    <glyph glyph-name="atilde" unicode="&#xe3;" horiz-adv-x="374" 
d="M114 0h-94l31 595q6 123 119 123h70q113 0 107 -123l-31 -595h-94l13 263h-108zM240 350l13 239q2 42 -39 42h-26q-41 0 -43 -42l-13 -239h108zM312 857q-3 -44 -27 -66.5t-54 -23.5q-10 0 -18.5 3t-16 6.5t-13.5 7t-14 3.5q-19 0 -25 -25h-48q2 43 23.5 64t51.5 23
q10 0 17 -3t15 -7t16 -7t16 -3q10 2 17 8.5t9 19.5h51z" />
    <glyph glyph-name="adieresis" unicode="&#xe4;" horiz-adv-x="374" 
d="M114 0h-94l31 595q6 123 119 123h70q113 0 107 -123l-31 -595h-94l13 263h-108zM240 350l13 239q2 42 -39 42h-26q-41 0 -43 -42l-13 -239h108zM177 862l-5 -100h-79l5 100h79zM314 862l-5 -100h-79l5 100h79z" />
    <glyph glyph-name="aring" unicode="&#xe5;" horiz-adv-x="374" 
d="M114 0h-94l31 595q6 123 119 123h70q113 0 107 -123l-31 -595h-94l13 263h-108zM240 350l13 239q2 42 -39 42h-26q-41 0 -43 -42l-13 -239h108zM287 813q-1 -33 -22 -55t-52 -22q-29 0 -52 22t-22 55q-1 34 22 56t52 22q31 0 52 -22t22 -56zM247 813q-1 15 -10.5 25
t-23.5 10t-23.5 -10t-8.5 -25q-1 -15 8.5 -25t23.5 -10t23.5 10t10.5 25z" />
    <glyph glyph-name="ae" unicode="&#xe6;" horiz-adv-x="499" 
d="M115 0h-95l31 595q6 123 119 123h323l-4 -87h-140l-12 -218h124l-4 -87h-124l-13 -239h140l-4 -87h-234l13 263h-107zM240 350l15 281h-66q-41 0 -43 -42l-13 -239h107z" />
    <glyph glyph-name="ccedilla" unicode="&#xe7;" horiz-adv-x="355" 
d="M315 168l-3 -46q-6 -122 -119 -122h-60q-113 0 -107 122l25 474q6 122 119 122h60q113 0 107 -122l-4 -81h-94l4 74q2 42 -40 42h-19q-37 0 -39 -42l-25 -460q-2 -42 35 -42h24q37 0 39 42l3 39h94zM116 -137h45q25 0 27 24v14q2 28 -23 28h-39l5 97h51l-3 -57h9
q54 0 51 -58l-2 -38q-3 -54 -58 -55h-65z" />
    <glyph glyph-name="egrave" unicode="&#xe8;" horiz-adv-x="301" 
d="M25 0l37 718h234l-4 -87h-140l-12 -218h124l-4 -87h-124l-13 -239h140l-4 -87h-234zM94 870h87l38 -118h-67z" />
    <glyph glyph-name="eacute" unicode="&#xe9;" horiz-adv-x="301" 
d="M25 0l37 718h234l-4 -87h-140l-12 -218h124l-4 -87h-124l-13 -239h140l-4 -87h-234zM180 772h-67l52 118h87z" />
    <glyph glyph-name="ecircumflex" unicode="&#xea;" horiz-adv-x="301" 
d="M25 0l37 718h234l-4 -87h-140l-12 -218h124l-4 -87h-124l-13 -239h140l-4 -87h-234zM179 820l-44 -58h-73l90 112h58l80 -112h-73z" />
    <glyph glyph-name="edieresis" unicode="&#xeb;" horiz-adv-x="301" 
d="M25 0l37 718h234l-4 -87h-140l-12 -218h124l-4 -87h-124l-13 -239h140l-4 -87h-234zM156 863l-5 -100h-79l5 100h79zM293 863l-5 -100h-79l5 100h79z" />
    <glyph glyph-name="igrave" unicode="&#xec;" horiz-adv-x="182" 
d="M25 0l37 718h94l-37 -718h-94zM31 880h87l38 -118h-67z" />
    <glyph glyph-name="iacute" unicode="&#xed;" horiz-adv-x="182" 
d="M25 0l37 718h94l-37 -718h-94zM102 764h-67l52 118h87z" />
    <glyph glyph-name="icircumflex" unicode="&#xee;" horiz-adv-x="182" 
d="M25 0l37 718h94l-37 -718h-94zM108 823l-44 -58h-73l90 112h58l80 -112h-73z" />
    <glyph glyph-name="idieresis" unicode="&#xef;" horiz-adv-x="182" 
d="M25 0l37 718h94l-37 -718h-94zM83 862l-5 -100h-79l5 100h79zM220 862l-5 -100h-79l5 100h79z" />
    <glyph glyph-name="eth" unicode="&#xf0;" horiz-adv-x="379" 
d="M25 0l37 718h164q132 0 125 -138l-25 -476q-5 -104 -118 -104h-183zM123 87h71q37 0 39 32l24 460q3 52 -39 52h-66zM10.1006 305l4.5 80h194.405l-4.5 -80h-194.405z" />
    <glyph glyph-name="ntilde" unicode="&#xf1;" horiz-adv-x="377" 
d="M239 371l18 347h94l-37 -718h-94l7 143l-84 327l-24 -470h-94l37 718h94zM314 857q-3 -44 -27 -66.5t-54 -23.5q-10 0 -18.5 3t-16 6.5t-13.5 7t-14 3.5q-19 0 -25 -25h-48q2 43 23.5 64t51.5 23q10 0 17 -3t15 -7t16 -7t16 -3q10 2 17 8.5t9 19.5h51z" />
    <glyph glyph-name="ograve" unicode="&#xf2;" 
d="M134 0q-114 0 -108 122l25 473q6 123 119 123h90q113 0 107 -123l-25 -473q-6 -122 -120 -122h-88zM160 87h48q38 0 40 42l25 460q2 42 -40 42h-45q-41 0 -43 -42l-25 -460q-2 -42 40 -42zM124 880h87l38 -118h-67z" />
    <glyph glyph-name="oacute" unicode="&#xf3;" 
d="M134 0q-114 0 -108 122l25 473q6 123 119 123h90q113 0 107 -123l-25 -473q-6 -122 -120 -122h-88zM160 87h48q38 0 40 42l25 460q2 42 -40 42h-45q-41 0 -43 -42l-25 -460q-2 -42 40 -42zM212 762h-67l52 118h87z" />
    <glyph glyph-name="ocircumflex" unicode="&#xf4;" 
d="M134 0q-114 0 -108 122l25 473q6 123 119 123h90q113 0 107 -123l-25 -473q-6 -122 -120 -122h-88zM160 87h48q38 0 40 42l25 460q2 42 -40 42h-45q-41 0 -43 -42l-25 -460q-2 -42 40 -42zM214 820l-44 -58h-73l90 112h58l80 -112h-73z" />
    <glyph glyph-name="otilde" unicode="&#xf5;" 
d="M134 0q-114 0 -108 122l25 473q6 123 119 123h90q113 0 107 -123l-25 -473q-6 -122 -120 -122h-88zM160 87h48q38 0 40 42l25 460q2 42 -40 42h-45q-41 0 -43 -42l-25 -460q-2 -42 40 -42zM317 857q-3 -44 -27 -66.5t-54 -23.5q-10 0 -18.5 3t-16 6.5t-13.5 7t-14 3.5
q-19 0 -25 -25h-48q2 43 23.5 64t51.5 23q10 0 17 -3t15 -7t16 -7t16 -3q10 2 17 8.5t9 19.5h51z" />
    <glyph glyph-name="odieresis" unicode="&#xf6;" 
d="M134 0q-114 0 -108 122l25 473q6 123 119 123h90q113 0 107 -123l-25 -473q-6 -122 -120 -122h-88zM160 87h48q38 0 40 42l25 460q2 42 -40 42h-45q-41 0 -43 -42l-25 -460q-2 -42 40 -42zM189 862l-5 -100h-79l5 100h79zM326 862l-5 -100h-79l5 100h79z" />
    <glyph glyph-name="divide" unicode="&#xf7;" horiz-adv-x="432" 
d="M278 579l-7 -123h-100l7 123h100zM260 236l-7 -123h-100l7 123h100zM22 300l5 86h382l-5 -86h-382z" />
    <glyph glyph-name="oslash" unicode="&#xf8;" 
d="M316 778l-15 -65q71 -20 66 -118l-25 -473q-6 -122 -120 -122h-88h-1l-14 -60h-44l15 65q-69 21 -64 117l25 473q6 123 119 123h88l14 60h44zM273 591l-120 -504h55q38 0 40 42zM121 136l116 495h-49q-41 0 -43 -42z" />
    <glyph glyph-name="ugrave" unicode="&#xf9;" 
d="M368 718l-30 -582q-7 -136 -121 -136h-79q-113 0 -106 137l30 581h94l-30 -584q-3 -47 38 -47h39q38 0 41 47l30 584h94zM108 870h87l38 -118h-67z" />
    <glyph glyph-name="uacute" unicode="&#xfa;" 
d="M368 718l-30 -582q-7 -136 -121 -136h-79q-113 0 -106 137l30 581h94l-30 -584q-3 -47 38 -47h39q38 0 41 47l30 584h94zM216 752h-67l52 118h87z" />
    <glyph glyph-name="ucircumflex" unicode="&#xfb;" 
d="M368 718l-30 -582q-7 -136 -121 -136h-79q-113 0 -106 137l30 581h94l-30 -584q-3 -47 38 -47h39q38 0 41 47l30 584h94zM213 820l-44 -58h-73l90 112h58l80 -112h-73z" />
    <glyph glyph-name="udieresis" unicode="&#xfc;" 
d="M368 718l-30 -582q-7 -136 -121 -136h-79q-113 0 -106 137l30 581h94l-30 -584q-3 -47 38 -47h39q38 0 41 47l30 584h94zM189 862l-5 -100h-79l5 100h79zM326 862l-5 -100h-79l5 100h79z" />
    <glyph glyph-name="yacute" unicode="&#xfd;" horiz-adv-x="343" 
d="M201 0h-94l14 264l-93 454h93l55 -312h3l80 312h93l-137 -454zM181 752h-67l52 118h87z" />
    <glyph glyph-name="thorn" unicode="&#xfe;" horiz-adv-x="369" 
d="M149 598h91q112 0 106 -123l-7 -129q-7 -121 -121 -121h-88l-11 -225h-94l37 718h93zM135 312h71q37 0 39 42l6 115q2 42 -40 42h-66z" />
    <glyph glyph-name="ydieresis" unicode="&#xff;" horiz-adv-x="343" 
d="M201 0h-94l14 264l-93 454h93l55 -312h3l80 312h93l-137 -454zM164 862l-5 -100h-79l5 100h79zM301 862l-5 -100h-79l5 100h79z" />
    <glyph glyph-name="dotlessi" unicode="&#x131;" horiz-adv-x="182" 
d="M25 0l37 718h94l-37 -718h-94z" />
    <glyph glyph-name="Lslash" unicode="&#x141;" horiz-adv-x="272" 
d="M215 450l-3 -68l-71 -44l-13 -251h129l-4 -87h-223l14 277l-37 -23l4 68l37 23l19 373h94l-16 -312z" />
    <glyph glyph-name="lslash" unicode="&#x142;" horiz-adv-x="272" 
d="M215 450l-3 -68l-71 -44l-13 -251h129l-4 -87h-223l14 277l-37 -23l4 68l37 23l19 373h94l-16 -312z" />
    <glyph glyph-name="OE" unicode="&#x152;" horiz-adv-x="524" 
d="M489 87l-4 -87h-198l1 30l-40 -30h-116q-112 0 -106 123l25 472q6 123 118 123h116l38 -30l1 30h198l-4 -88h-139l-12 -217h124l-4 -87h-124l-13 -239h139zM160 87h60q37 0 40 43l23 458q3 43 -39 43h-56q-41 0 -43 -42l-25 -460q-2 -42 40 -42z" />
    <glyph glyph-name="oe" unicode="&#x153;" horiz-adv-x="524" 
d="M489 87l-4 -87h-198l1 30l-40 -30h-116q-112 0 -106 123l25 472q6 123 118 123h116l38 -30l1 30h198l-4 -88h-139l-12 -217h124l-4 -87h-124l-13 -239h139zM160 87h60q37 0 40 43l23 458q3 43 -39 43h-56q-41 0 -43 -42l-25 -460q-2 -42 40 -42z" />
    <glyph glyph-name="Scaron" unicode="&#x160;" horiz-adv-x="353" 
d="M232 525l3 63q3 43 -38 43h-15q-40 0 -43 -43l-6 -119q-1 -20 6.5 -27t24.5 -18l86 -49q29 -17 40.5 -26.5t18 -23t4.5 -51.5l-8 -153q-6 -121 -120 -121h-57q-113 0 -106 132l2 36h94l-3 -39q-2 -42 40 -42h17q37 0 39 42l7 122q1 20 -6.5 27t-24.5 18l-86 51
q-29 16 -41.5 27t-17.5 28.5t-4 45.5l8 147q6 123 119 123h58q113 0 107 -123l-4 -70h-94zM186 819l44 58h73l-90 -112h-58l-80 112h73z" />
    <glyph glyph-name="scaron" unicode="&#x161;" horiz-adv-x="353" 
d="M232 525l3 63q3 43 -38 43h-15q-40 0 -43 -43l-6 -119q-1 -20 6.5 -27t24.5 -18l86 -49q29 -17 40.5 -26.5t18 -23t4.5 -51.5l-8 -153q-6 -121 -120 -121h-57q-113 0 -106 132l2 36h94l-3 -39q-2 -42 40 -42h17q37 0 39 42l7 122q1 20 -6.5 27t-24.5 18l-86 51
q-29 16 -41.5 27t-17.5 28.5t-4 45.5l8 147q6 123 119 123h58q113 0 107 -123l-4 -70h-94zM176 816l44 58h73l-90 -112h-58l-80 112h73z" />
    <glyph glyph-name="Ydieresis" unicode="&#x178;" horiz-adv-x="343" 
d="M201 0h-94l14 264l-93 454h93l55 -312h3l80 312h93l-137 -454zM152 865l-5 -100h-79l5 100h79zM289 865l-5 -100h-79l5 100h79z" />
    <glyph glyph-name="florin" unicode="&#x192;" horiz-adv-x="307" 
d="M-83 -99h49q26 0 32 32l82 484h-40l13 78h39l21 121q11 57 31.5 79.5t75.5 22.5h87l-13 -84h-60q-29 0 -35 -31l-18 -108h88l-13 -78h-88l-86 -498q-11 -57 -31.5 -79.5t-72.5 -22.5h-74z" />
    <glyph glyph-name="circumflex" unicode="&#x2c6;" horiz-adv-x="314" 
d="M165 620l-44 -58h-73l90 112h58l80 -112h-73z" />
    <glyph glyph-name="caron" unicode="&#x2c7;" horiz-adv-x="314" 
d="M156 616l44 58h73l-90 -112h-58l-80 112h73z" />
    <glyph glyph-name="breve" unicode="&#x2d8;" horiz-adv-x="266" 
d="M94 673q4 -26 12 -39t27 -13q16 0 27 13t15 39h58q-11 -58 -42 -84.5t-61 -26.5q-34 0 -62.5 26.5t-30.5 84.5h57z" />
    <glyph glyph-name="dotaccent" unicode="&#x2d9;" horiz-adv-x="156" 
d="M130 684l-7 -122h-100l7 122h100z" />
    <glyph glyph-name="ring" unicode="&#x2da;" horiz-adv-x="211" 
d="M195 613q-1 -33 -22 -55t-52 -22q-29 0 -52 22t-22 55q-1 34 22 56t52 22q31 0 52 -22t22 -56zM155 613q-1 15 -10.5 25t-23.5 10t-23.5 -10t-8.5 -25q-1 -15 8.5 -25t23.5 -10t23.5 10t10.5 25z" />
    <glyph glyph-name="ogonek" unicode="&#x2db;" horiz-adv-x="214" 
d="M178 24q-44 -33 -60 -55.5t-18 -46.5q-1 -33 32 -33q20 0 46 15l-4 -69q-28 -13 -59 -13q-36 0 -59.5 22.5t-21.5 59.5q0 14 3.5 27.5t13 27.5t25.5 30.5t43 34.5h59z" />
    <glyph glyph-name="tilde" unicode="&#x2dc;" horiz-adv-x="288" 
d="M258 657q-3 -44 -27 -66.5t-54 -23.5q-10 0 -18.5 3t-16 6.5t-13.5 7t-14 3.5q-19 0 -25 -25h-48q2 43 23.5 64t51.5 23q10 0 17 -3t15 -7t16 -7t16 -3q10 2 17 8.5t9 19.5h51z" />
    <glyph glyph-name="hungarumlaut" unicode="&#x2dd;" horiz-adv-x="334" 
d="M301 694h-84l-62 -132h62zM177 694h-84l-61 -132h61z" />
    <glyph glyph-name="endash" unicode="&#x2013;" horiz-adv-x="280" 
d="M-1 290l2 71h280l-3 -71h-279z" />
    <glyph glyph-name="emdash" unicode="&#x2014;" horiz-adv-x="460" 
d="M-1 290l2 71h460l-3 -71h-459z" />
    <glyph glyph-name="quoteleft" unicode="&#x2018;" horiz-adv-x="157" 
d="M139 719l-51 -129h46l-7 -135h-66q-39 0 -37 40l5 95l53 129h57z" />
    <glyph glyph-name="quoteright" unicode="&#x2019;" horiz-adv-x="148" 
d="M8 455l51 129h-46l7 135h66q39 0 37 -40l-5 -95l-53 -129h-57z" />
    <glyph glyph-name="quotesinglbase" unicode="&#x201a;" horiz-adv-x="158" 
d="M-22 -148l51 129h-46l7 135h66q39 0 37 -40l-5 -95l-53 -129h-57z" />
    <glyph glyph-name="quotedblleft" unicode="&#x201c;" horiz-adv-x="313" 
d="M140 719l-52 -129h46l-7 -135h-65q-39 0 -37 40l5 95l53 129h57zM294 719l-51 -129h46l-7 -135h-65q-40 0 -38 40l5 95l54 129h56z" />
    <glyph glyph-name="quotedblright" unicode="&#x201d;" horiz-adv-x="313" 
d="M173 455l52 129h-47l7 135h66q39 0 37 -40l-5 -95l-53 -129h-57zM18 455l51 129h-46l7 135h65q40 0 38 -40l-5 -95l-54 -129h-56z" />
    <glyph glyph-name="quotedblbase" unicode="&#x201e;" horiz-adv-x="313" 
d="M143 -148l52 129h-47l7 135h66q39 0 37 -40l-5 -95l-53 -129h-57zM-12 -148l51 129h-46l7 135h65q40 0 38 -40l-5 -95l-54 -129h-56z" />
    <glyph glyph-name="dagger" unicode="&#x2020;" horiz-adv-x="350" 
d="M339 422l4 93h-110l11 203h-93l-11 -203h-109l-4 -93h109l-32 -604h93l32 604h110z" />
    <glyph glyph-name="daggerdbl" unicode="&#x2021;" horiz-adv-x="350" 
d="M9 93l-5 -93h109l-9 -182h93l9 182h110l5 93h-110l18 329h110l4 93h-110l11 203h-93l-11 -203h-109l-4 -93h109l-18 -329h-109z" />
    <glyph glyph-name="bullet" unicode="&#x2022;" horiz-adv-x="188" 
d="M134 473l-9 -182h-129l8 182h130z" />
    <glyph glyph-name="ellipsis" unicode="&#x2026;" horiz-adv-x="477" 
d="M132 122l-7 -122h-100l7 122h100zM291 122l-7 -122h-100l7 122h100zM450 122l-7 -122h-100l7 122h100z" />
    <glyph glyph-name="perthousand" unicode="&#x2030;" horiz-adv-x="846" 
d="M463 718l-261 -718h-60l261 718h60zM146 334h-32q-77 0 -73 75l12 234q4 75 81 75h32q77 0 73 -75l-12 -234q-4 -75 -81 -75zM154 663h-15q-21 0 -22 -28l-12 -219q-1 -28 20 -28h15q22 0 23 28l12 219q1 28 -21 28zM471 0h-32q-77 0 -73 75l12 234q4 75 81 75h32
q77 0 73 -75l-12 -234q-4 -75 -81 -75zM479 329h-15q-21 0 -23 -28l-11 -219q-1 -28 20 -28h15q22 0 23 28l11 219q2 28 -20 28zM711 0h-32q-77 0 -73 75l12 234q4 75 81 75h32q77 0 73 -75l-12 -234q-4 -75 -81 -75zM719 329h-15q-21 0 -23 -28l-11 -219q-1 -28 20 -28h15
q22 0 23 28l11 219q2 28 -20 28z" />
    <glyph glyph-name="guilsinglleft" unicode="&#x2039;" horiz-adv-x="226" 
d="M186 140l-90 208l111 208h-81l-114 -208l93 -208h81z" />
    <glyph glyph-name="guilsinglright" unicode="&#x203a;" horiz-adv-x="227" 
d="M19 140h81l115 208l-94 208h-81l92 -208z" />
    <glyph glyph-name="fraction" unicode="&#x2044;" horiz-adv-x="297" 
d="M318 778h-71l-268 -838h69z" />
    <glyph glyph-name="fraction" unicode="&#x2215;" horiz-adv-x="297" 
d="M318 778h-71l-268 -838h69z" />
    <glyph glyph-name="Euro" unicode="&#x20ac;" horiz-adv-x="376" 
d="M236 448l-3 -58h-93l-2 -42h60l-3 -59h-60l-9 -160q-2 -42 39 -42h24q39 0 41 40l2 29h94l-2 -35q-6 -121 -120 -121h-66q-112 0 -106 126l9 163h-36l3 59h36l2 42h-36l3 58h36l8 147q6 123 118 123h66q114 0 108 -123l-2 -39h-94l1 32q3 43 -41 43h-19q-41 0 -43 -42
l-8 -141h93z" />
    <glyph glyph-name="trademark" unicode="&#x2122;" horiz-adv-x="473" 
d="M192 667l2 51h-165l-2 -51h55l-19 -367h54l19 367h56zM330 473l63 245h61l-21 -418h-55l20 274l-52 -198h-42l-31 198l-8 -274h-55l21 418h61z" />
    <glyph glyph-name="minus" unicode="&#x2212;" horiz-adv-x="334" 
d="M37 300l5 85h254l-5 -85h-254z" />
    <glyph glyph-name="fi" unicode="&#xfb01;" horiz-adv-x="464" 
d="M307 0l33 631h-188l-12 -218h123l-4 -87h-123l-17 -326h-94l37 718h282h94l-37 -718h-94z" />
    <glyph glyph-name="fl" unicode="&#xfb02;" horiz-adv-x="560" 
d="M531 0h-224l33 631h-188l-12 -218h124l-4 -87h-124l-17 -326h-94l37 718h282h94l-33 -631h130z" />
    <glyph glyph-name="glyph227" horiz-adv-x="490" 
 />
    <glyph glyph-name="Zaron" horiz-adv-x="0" 
 />
    </font>
</defs>
</svg>
